<?xml version="1.0" standalone="no"?>
<!DOCTYPE svg PUBLIC "-//W3C//DTD SVG 1.1//EN" "http://www.w3.org/Graphics/SVG/1.1/DTD/svg11.dtd" >
<svg xmlns="http://www.w3.org/2000/svg" xmlns:xlink="http://www.w3.org/1999/xlink" version="1.1">
<metadata>
Created by FontForge 20170731 at Mon Feb  8 17:12:40 2021
 By Aleksey,,,
(C)2002 House Industries/Brand Design Co. Inc.
</metadata>
<defs>
<font id="NeutraText-DemiSCAlt" horiz-adv-x="450" >
  <font-face 
    font-family="Neutra Text Light SC Alt"
    font-weight="500"
    font-stretch="normal"
    units-per-em="2048"
    panose-1="2 0 0 0 0 0 0 0 0 0"
    ascent="1638"
    descent="-410"
    x-height="1051"
    cap-height="1393"
    bbox="-82 -483 2660 1954"
    underline-thickness="40"
    underline-position="-312"
    unicode-range="U+000D-FB02"
  />
<missing-glyph horiz-adv-x="1024" 
 />
    <glyph glyph-name="fi" unicode="fi" horiz-adv-x="1409" 
d="M1059 0v1051h211v-1051h-211zM135 0v1051h692v-185h-483v-344h436v-184h-436v-338h-209z" />
    <glyph glyph-name="fl" unicode="fl" horiz-adv-x="1822" 
d="M1055 0v1051h209v-869h477v-182h-686zM135 0v1051h692v-185h-483v-344h436v-184h-436v-338h-209z" />
    <glyph glyph-name="ff" unicode="ff" horiz-adv-x="1839" 
d="M1055 0v1051h692v-185h-483v-344h436v-184h-436v-338h-209zM135 0v1051h692v-185h-483v-344h436v-184h-436v-338h-209z" />
    <glyph glyph-name="ffi" unicode="ffi" horiz-adv-x="2328" 
d="M1978 0v1051h211v-1051h-211zM1055 0v1051h692v-185h-483v-344h436v-184h-436v-338h-209zM135 0v1051h692v-185h-483v-344h436v-184h-436v-338h-209z" />
    <glyph glyph-name="ffl" unicode="ffl" horiz-adv-x="2742" 
d="M1974 0v1051h209v-869h477v-182h-686zM1055 0v1051h692v-185h-483v-344h436v-184h-436v-338h-209zM135 0v1051h692v-185h-483v-344h436v-184h-436v-338h-209z" />
    <glyph glyph-name=".notdef" horiz-adv-x="1024" 
 />
    <glyph glyph-name=".notdef" horiz-adv-x="1024" 
 />
    <glyph glyph-name=".null" horiz-adv-x="0" 
 />
    <glyph glyph-name="nonmarkingreturn" horiz-adv-x="682" 
 />
    <glyph glyph-name="CR" unicode="&#xd;" horiz-adv-x="432" 
 />
    <glyph glyph-name="space" unicode=" " horiz-adv-x="432" 
 />
    <glyph glyph-name="exclam" unicode="!" horiz-adv-x="536" 
d="M186 430l-34 963h233l-35 -963h-164zM268 -12q-57 0 -98 39.5t-41 99.5t41 99.5t98 39.5q58 0 99 -39.5t41 -99.5t-41 -99.5t-99 -39.5z" />
    <glyph glyph-name="quotedbl" unicode="&#x22;" horiz-adv-x="704" 
d="M428 926l-25 467h224l-25 -467h-174zM102 926l-24 467h221l-23 -467h-174z" />
    <glyph glyph-name="numbersign" unicode="#" horiz-adv-x="1009" 
d="M133 328l53 213h-123v159h162l47 189h-129v162h168l56 211h163l-53 -211h180l54 211h166l-54 -211h123v-162h-162l-47 -189h127v-159h-168l-53 -213h-166l53 213h-180l-51 -213h-166zM391 700h180l47 189h-178z" />
    <glyph glyph-name="dollar" unicode="$" horiz-adv-x="956" 
d="M422 -16q-147 14 -245 81.5t-144 157.5l155 86q79 -136 234 -159v311q-170 42 -250 119t-80 194q0 118 87.5 200t242.5 91v213h113v-217q102 -14 178.5 -64t117.5 -114l-137 -101q-54 94 -159 119v-276q181 -45 269.5 -125t88.5 -205q0 -140 -91 -221t-267 -90v-224h-113
v224zM422 907q-139 -12 -139 -116q0 -52 29.5 -81.5t109.5 -52.5v250zM535 147q163 13 163 129q0 57 -35 93t-128 63v-285z" />
    <glyph glyph-name="percent" unicode="%" horiz-adv-x="1656" 
d="M375 446q-131 0 -225.5 88.5t-94.5 221.5t94.5 222t225.5 89t225 -89t94 -222t-94 -221.5t-225 -88.5zM395 0l660 1051h207l-660 -1051h-207zM1282 -18q-132 0 -225.5 88.5t-93.5 222.5q0 133 94 222t225 89t225.5 -89t94.5 -222q0 -134 -94 -222.5t-226 -88.5zM375 604
q60 0 102.5 42.5t42.5 109.5q0 68 -42 110.5t-103 42.5q-59 0 -102.5 -42.5t-43.5 -110.5q0 -67 43.5 -109.5t102.5 -42.5zM1282 141q60 0 102.5 42.5t42.5 109.5t-42.5 109t-102.5 42q-59 0 -101 -42t-42 -109t42 -109.5t101 -42.5z" />
    <glyph glyph-name="ampersand" unicode="&#x26;" horiz-adv-x="1128" 
d="M598 580l190 -230q43 94 46 209h180q-3 -202 -105 -354l170 -205h-237l-64 76q-134 -92 -299 -92q-186 0 -292.5 85.5t-106.5 227.5q0 109 62.5 177.5t195.5 131.5q-82 108 -82 221q0 103 76 170.5t203 67.5q119 0 192.5 -65t73.5 -171q0 -148 -203 -249zM510 686
q62 32 88.5 64t26.5 73q0 40 -25 65t-65 25q-41 0 -68 -25t-27 -65q0 -23 9 -45.5t19.5 -37.5t29.5 -38zM668 209l-242 293q-74 -39 -106.5 -83.5t-32.5 -109.5q0 -72 52.5 -114.5t139.5 -42.5q104 0 189 57z" />
    <glyph glyph-name="quotesingle" unicode="'" horiz-adv-x="376" 
d="M102 926l-24 467h221l-23 -467h-174z" />
    <glyph glyph-name="parenleft" unicode="(" horiz-adv-x="645" 
d="M465 -129q-60 59 -108.5 115.5t-99.5 136t-85 161.5t-56 187.5t-22 218.5q0 140 31.5 266.5t88.5 228t116.5 177t134.5 149.5l127 -102q-88 -102 -146.5 -201t-95.5 -232.5t-37 -285.5q0 -220 72 -390.5t207 -326.5z" />
    <glyph glyph-name="parenright" unicode=")" horiz-adv-x="645" 
d="M180 -129l-127 102q135 156 207 326.5t72 390.5q0 152 -37 285.5t-95.5 232.5t-146.5 201l127 102q76 -75 134.5 -150t116 -177t89 -228t31.5 -266t-31.5 -266t-88.5 -227.5t-116 -176.5t-135 -149z" />
    <glyph glyph-name="asterisk" unicode="*" horiz-adv-x="837" 
d="M326 754l45 241l-185 -157l-90 155l236 80l-236 82l90 156l185 -158l-45 240h184l-45 -240l186 158l90 -156l-239 -82l239 -80l-90 -155l-186 157l45 -241h-184z" />
    <glyph glyph-name="plus" unicode="+" horiz-adv-x="800" 
d="M307 197v241h-227v183h227v241h187v-241h227v-183h-227v-241h-187z" />
    <glyph glyph-name="comma" unicode="," horiz-adv-x="460" 
d="M98 -233l78 237q-39 15 -62.5 48.5t-23.5 78.5q0 58 41.5 97.5t99.5 39.5q57 0 98.5 -40t41.5 -99q0 -54 -43 -127l-121 -235h-109z" />
    <glyph glyph-name="hyphen" unicode="-" horiz-adv-x="602" 
d="M84 391v187h432v-187h-432z" />
    <glyph glyph-name="hyphen" unicode="&#xad;" horiz-adv-x="602" 
d="M84 391v187h432v-187h-432z" />
    <glyph glyph-name="period" unicode="." horiz-adv-x="456" 
d="M229 -12q-58 0 -99.5 40.5t-41.5 100.5t41.5 99.5t99.5 39.5q57 0 98.5 -39.5t41.5 -99.5t-41.5 -100.5t-98.5 -40.5z" />
    <glyph glyph-name="slash" unicode="/" horiz-adv-x="851" 
d="M0 -262l594 1741h205l-594 -1741h-205z" />
    <glyph glyph-name="zero" unicode="0" horiz-adv-x="1198" 
d="M598 -18q-139 0 -255.5 67.5t-186.5 192.5t-70 282q0 119 41 221.5t110.5 172.5t163 109.5t197.5 39.5t198 -39.5t164 -109.5t111 -172.5t41 -221.5q0 -157 -70.5 -282t-187.5 -192.5t-256 -67.5zM598 168q133 0 215 96.5t82 259.5t-82 261t-215 98t-215 -98t-82 -261
t82 -259.5t215 -96.5z" />
    <glyph glyph-name="one" unicode="1" horiz-adv-x="630" 
d="M279 0v868h-207v183h417v-1051h-210z" />
    <glyph glyph-name="two" unicode="2" horiz-adv-x="929" 
d="M45 0v20l434 445q74 78 110 140.5t36 125.5q0 67 -39.5 107.5t-112.5 40.5q-141 0 -201 -174l-188 49q34 144 138.5 228.5t256.5 84.5q163 0 261 -91t98 -237q0 -90 -45.5 -175.5t-133.5 -178.5l-124 -131q-16 -16 -41.5 -36.5t-43.5 -33.5l-18 -12q72 8 125 8h287v-180
h-799z" />
    <glyph glyph-name="three" unicode="3" horiz-adv-x="948" 
d="M459 -18q-149 0 -258 67.5t-158 177.5l176 84q71 -143 234 -143q93 0 146.5 54t53.5 136q0 84 -58 137.5t-161 53.5q-78 0 -143 -27l-10 17l180 243q13 16 36 41t39 41l17 17q-94 -13 -145 -13h-275v183h717v-21l-193 -262q-18 -24 -38 -44t-31 -28l-10 -8
q129 -21 209.5 -112t80.5 -230q0 -112 -56 -196t-148 -126t-205 -42z" />
    <glyph glyph-name="four" unicode="4" horiz-adv-x="1024" 
d="M602 0v156h-534v155l720 750h21v-737h135v-168h-135v-156h-207zM274 309q72 8 127 8h205v203l8 166q-45 -74 -100 -135l-145 -160q-16 -18 -40 -38.5t-39 -32.5z" />
    <glyph glyph-name="five" unicode="5" horiz-adv-x="933" 
d="M453 -18q-145 0 -251 66t-155 161l172 96q81 -137 223 -137q92 0 146.5 51t54.5 133q0 88 -60 139.5t-167 51.5q-145 0 -260 -80l-15 6v582h627v-181h-449v-190q60 29 142 29q180 0 286.5 -100t106.5 -261q0 -164 -109 -265t-292 -101z" />
    <glyph glyph-name="six" unicode="6" horiz-adv-x="983" 
d="M494 -18q-178 0 -293 108.5t-115 269.5q0 131 102 279l285 412h236l-168 -238q-18 -25 -47 -56.5t-48 -50.5l-20 -18q60 29 115 29q153 0 256.5 -100.5t103.5 -256.5q0 -160 -114 -269t-293 -109zM492 166q94 0 145 56.5t51 139.5q0 85 -50.5 141t-145.5 56
q-90 0 -144.5 -56.5t-54.5 -140.5q0 -81 55 -138.5t144 -57.5z" />
    <glyph glyph-name="seven" unicode="7" horiz-adv-x="944" 
d="M162 0l426 868h-510v183h811v-19l-502 -1032h-225z" />
    <glyph glyph-name="eight" unicode="8" horiz-adv-x="968" 
d="M483 -18q-180 0 -295.5 95t-115.5 236q0 110 63.5 185t167.5 108q-65 29 -105 80.5t-40 126.5q0 110 95.5 182t229.5 72q135 0 229.5 -72t94.5 -182q0 -144 -143 -207q105 -32 169 -107t64 -186q0 -141 -117 -236t-297 -95zM483 670q57 0 95 31t38 85q0 51 -38 82t-95 31
t-94 -31t-37 -82q0 -54 37 -85t94 -31zM483 164q88 0 143.5 49t55.5 125q0 78 -55 128t-144 50q-88 0 -143 -50t-55 -128q0 -76 55.5 -125t142.5 -49z" />
    <glyph glyph-name="nine" unicode="9" horiz-adv-x="985" 
d="M262 0l189 250q18 25 44 53t43 43l17 16q-47 -30 -111 -30q-153 0 -258.5 101t-105.5 257q0 158 116 267.5t296 109.5q178 0 292.5 -108.5t114.5 -268.5q0 -145 -108 -291l-295 -399h-234zM494 489q90 0 143 57t53 142q0 80 -53.5 138.5t-142.5 58.5q-95 0 -148 -57.5
t-53 -139.5q0 -85 52.5 -142t148.5 -57z" />
    <glyph glyph-name="colon" unicode=":" horiz-adv-x="477" 
d="M240 451q-58 0 -100 41t-42 102q0 60 42 100.5t100 40.5q57 0 98 -40.5t41 -100.5t-41.5 -101.5t-97.5 -41.5zM240 -12q-58 0 -100 40.5t-42 100.5t42 100.5t100 40.5q57 0 98 -40.5t41 -100.5t-41 -100.5t-98 -40.5z" />
    <glyph glyph-name="semicolon" unicode=";" horiz-adv-x="481" 
d="M242 451q-58 0 -100 41t-42 102q0 60 42 100.5t100 40.5q57 0 98 -40.5t41 -100.5t-41.5 -101.5t-97.5 -41.5zM109 -233l77 237q-39 15 -62.5 48.5t-23.5 78.5q0 58 42 97.5t100 39.5q57 0 98 -40t41 -99q0 -54 -43 -127l-121 -235h-108z" />
    <glyph glyph-name="semicolon" unicode="&#x37e;" horiz-adv-x="481" 
d="M242 451q-58 0 -100 41t-42 102q0 60 42 100.5t100 40.5q57 0 98 -40.5t41 -100.5t-41.5 -101.5t-97.5 -41.5zM109 -233l77 237q-39 15 -62.5 48.5t-23.5 78.5q0 58 42 97.5t100 39.5q57 0 98 -40t41 -99q0 -54 -43 -127l-121 -235h-108z" />
    <glyph glyph-name="less" unicode="&#x3c;" horiz-adv-x="731" 
d="M643 172l-582 317v21l582 313v-182l-285 -143l285 -142v-184z" />
    <glyph glyph-name="equal" unicode="=" horiz-adv-x="792" 
d="M80 573v181h633v-181h-633zM80 274v181h633v-181h-633z" />
    <glyph glyph-name="greater" unicode="&#x3e;" horiz-adv-x="731" 
d="M88 172v182l283 144l-283 141v184l582 -317v-21z" />
    <glyph glyph-name="question" unicode="?" horiz-adv-x="1005" 
d="M358 426v344h80q125 0 192.5 67.5t67.5 168.5q0 95 -60 157t-157 62q-91 0 -149 -39.5t-101 -120.5l-168 96q53 122 160 186t258 64q195 0 312.5 -116t117.5 -289q0 -163 -96 -269t-262 -125v-186h-195zM453 -12q-57 0 -98.5 39.5t-41.5 99.5t41.5 99.5t98.5 39.5
t98 -39.5t41 -99.5t-41 -99.5t-98 -39.5z" />
    <glyph glyph-name="at" unicode="@" horiz-adv-x="1853" 
d="M946 -424q-242 0 -435.5 99t-307 287t-113.5 433q0 178 69 334t185 263.5t270.5 169t323.5 61.5q239 0 427.5 -97t293 -270t104.5 -393q0 -232 -93 -352.5t-255 -120.5q-210 0 -260 174q-86 -182 -287 -182q-152 0 -255 113t-103 286q0 174 102.5 289.5t253.5 115.5
q169 0 248 -151l-4 131h201v-469q0 -79 25 -116.5t85 -37.5q162 0 162 318q0 283 -173 442.5t-472 159.5q-191 0 -340.5 -85.5t-232 -237.5t-82.5 -345q0 -295 177 -476t484 -181q179 0 332 67l67 -145q-178 -84 -397 -84zM922 152q82 0 137 66.5t55 162.5q0 98 -55 165.5
t-137 67.5q-89 0 -144 -66t-55 -167q0 -100 55 -164.5t144 -64.5z" />
    <glyph glyph-name="A" unicode="A" horiz-adv-x="1349" 
d="M59 0l596 1407h25l610 -1407h-225l-80 197h-637l-80 -197h-209zM422 379h485l-174 434q-16 36 -33 88t-26 85l-10 34q-33 -125 -68 -207z" />
    <glyph glyph-name="B" unicode="B" horiz-adv-x="1247" 
d="M168 0v1393h506q187 0 290 -99.5t103 -251.5q0 -99 -48.5 -168t-139.5 -100q138 -32 211 -125t73 -229q0 -186 -119 -303t-333 -117h-543zM385 850h279q94 0 142 47.5t48 128.5t-48.5 128.5t-146.5 47.5h-274v-352zM385 190h313q122 0 185 65t63 173t-66.5 173t-191.5 65
h-303v-476z" />
    <glyph glyph-name="C" unicode="C" horiz-adv-x="1474" 
d="M819 -18q-147 0 -278.5 53.5t-227.5 147t-152.5 227t-56.5 286.5t56.5 286.5t152.5 226.5t227.5 146.5t278.5 53.5q373 0 557 -276l-166 -119q-61 94 -160 147t-231 53q-216 0 -354.5 -147t-138.5 -371t139 -372t354 -148q264 0 412 219l166 -116q-93 -141 -240 -219
t-338 -78z" />
    <glyph glyph-name="D" unicode="D" horiz-adv-x="1396" 
d="M168 0v1393h383q221 0 389.5 -86.5t261 -245t92.5 -365.5q0 -314 -203.5 -505t-539.5 -191h-383zM385 190h152q133 0 235.5 37t167 105t97 159.5t32.5 204.5t-32.5 204.5t-97 159.5t-167 105t-235.5 37h-152v-1012z" />
    <glyph glyph-name="E" unicode="E" horiz-adv-x="1202" 
d="M168 0v1393h885v-191h-668v-540h592v-187h-592v-285h696v-190h-913z" />
    <glyph glyph-name="F" unicode="F" horiz-adv-x="1136" 
d="M168 0v1393h866v-191h-649v-559h590v-192h-590v-451h-217z" />
    <glyph glyph-name="G" unicode="G" horiz-adv-x="1579" 
d="M817 -18q-204 0 -368.5 91.5t-258.5 255t-94 367.5q0 152 56.5 285.5t153 227t228.5 147t279 53.5q384 0 565 -285l-168 -120q-134 210 -397 210q-217 0 -356.5 -147t-139.5 -371t140.5 -373t357.5 -149q190 0 310.5 96t146.5 240h-424v188h653q6 -327 -175.5 -521.5
t-508.5 -194.5z" />
    <glyph glyph-name="H" unicode="H" horiz-adv-x="1439" 
d="M168 0v1393h217v-750h670v750h217v-1393h-217v451h-670v-451h-217z" />
    <glyph glyph-name="I" unicode="I" horiz-adv-x="565" 
d="M176 0v1393h215v-1393h-215z" />
    <glyph glyph-name="J" unicode="J" horiz-adv-x="1001" 
d="M442 -18q-146 0 -243.5 64.5t-151.5 170.5l176 109q41 -73 89.5 -111.5t119.5 -38.5q93 0 143 50.5t50 166.5v1000h217v-1004q0 -200 -109 -303.5t-291 -103.5z" />
    <glyph glyph-name="K" unicode="K" horiz-adv-x="1284" 
d="M369 614q68 138 106 189l451 590h245l-493 -652l549 -741h-262l-430 582l-150 -183v-399h-217v1393h217v-574q0 -91 -16 -205z" />
    <glyph glyph-name="L" unicode="L" horiz-adv-x="1114" 
d="M168 0v1393h217v-1203h643v-190h-860z" />
    <glyph glyph-name="M" unicode="M" horiz-adv-x="1716" 
d="M137 0l133 1409h25l481 -743q18 -26 39 -62t33 -59l12 -23q45 85 84 144l477 743h25l133 -1409h-215l-68 686l-12 225q-57 -120 -106 -194l-314 -502h-20l-312 500q-22 33 -50 81.5t-45 80.5l-17 32q-4 -139 -10 -223l-70 -686h-203z" />
    <glyph glyph-name="N" unicode="N" horiz-adv-x="1447" 
d="M1253 -14l-768 827q-24 26 -57 65t-54 65l-20 26q15 -115 15 -201v-768h-201v1407h29l768 -825q24 -25 56 -64t53 -66l20 -26q-15 123 -15 201v766h201v-1407h-27z" />
    <glyph glyph-name="O" unicode="O" horiz-adv-x="1644" 
d="M823 -18q-198 0 -362 91t-260.5 255t-96.5 368q0 153 56.5 286.5t153 227.5t229 147.5t280.5 53.5q147 0 279 -53.5t228.5 -147t153 -227.5t56.5 -287q0 -204 -96 -368t-260 -255t-361 -91zM823 176q217 0 356.5 148t139.5 372t-139.5 372.5t-356.5 148.5t-357 -148.5
t-140 -372.5t140 -372t357 -148z" />
    <glyph glyph-name="P" unicode="P" horiz-adv-x="1212" 
d="M168 0v1393h350q285 0 441.5 -142.5t156.5 -388.5q0 -245 -157 -387.5t-441 -142.5h-133v-332h-217zM385 522h125q385 0 385 340t-385 340h-125v-680z" />
    <glyph glyph-name="Q" unicode="Q" horiz-adv-x="1644" 
d="M928 -10v-314h-209v314q-130 18 -243.5 77.5t-195.5 150.5t-129 215t-47 263q0 204 96.5 368t260.5 254.5t362 90.5q147 0 279 -53.5t228.5 -146.5t153 -226.5t56.5 -286.5q0 -139 -47 -263t-128.5 -215t-194 -150.5t-242.5 -77.5zM719 176v268h209v-268
q176 34 283.5 175t107.5 345q0 224 -139.5 371t-356.5 147t-357 -147t-140 -371q0 -204 107.5 -345t285.5 -175z" />
    <glyph glyph-name="R" unicode="R" horiz-adv-x="1239" 
d="M838 430l295 -430h-250l-250 367q-88 -9 -117 -9h-131v-358h-217v1393h348q286 0 443 -139.5t157 -381.5q0 -320 -278 -442zM385 545h123q201 0 294 83.5t93 243.5q0 330 -387 330h-123v-657z" />
    <glyph glyph-name="S" unicode="S" horiz-adv-x="1091" 
d="M545 -18q-187 0 -312.5 79.5t-189.5 208.5l178 99q57 -94 129.5 -144.5t190.5 -50.5q106 0 173.5 52.5t67.5 138.5q0 85 -53.5 135t-179.5 106l-92 41q-166 73 -246 164.5t-80 243.5q0 156 109 255t282 99q138 0 234 -53.5t159 -165.5l-170 -105q-41 71 -92 103.5
t-131 32.5q-82 0 -131 -45t-49 -117q0 -75 45 -120t156 -93l90 -41q190 -83 277 -180.5t87 -257.5q0 -179 -125.5 -282t-326.5 -103z" />
    <glyph glyph-name="T" unicode="T" horiz-adv-x="1173" 
d="M479 0v1202h-413v191h1042v-191h-414v-1202h-215z" />
    <glyph glyph-name="U" unicode="U" horiz-adv-x="1380" 
d="M690 -18q-115 0 -211 32t-167.5 94t-111.5 159.5t-40 221.5v904h217v-891q0 -326 313 -326q316 0 316 326v891h215v-904q0 -124 -40.5 -221.5t-112.5 -159.5t-168 -94t-210 -32z" />
    <glyph glyph-name="V" unicode="V" horiz-adv-x="1349" 
d="M670 -14l-611 1407h232l313 -748q18 -41 39 -103t33 -104l12 -41q39 154 82 248l309 748h211l-594 -1407h-26z" />
    <glyph glyph-name="W" unicode="W" horiz-adv-x="1955" 
d="M545 -14l-486 1407h228l245 -742q12 -35 25.5 -84.5t20.5 -81.5l8 -32q34 118 67 198l320 756h26l322 -756q15 -35 31 -84.5t25 -81.5l9 -32q29 120 56 198l246 742h210l-481 -1407h-26l-347 829q-13 30 -27 72.5t-22 70.5l-8 27q-32 -102 -61 -170l-355 -829h-26z" />
    <glyph glyph-name="X" unicode="X" horiz-adv-x="1325" 
d="M72 0l467 762l-392 631h240l211 -340q15 -24 32 -59.5t26 -59.5l10 -23q30 87 63 142l207 340h233l-385 -631l471 -762h-239l-289 467q-15 24 -32.5 59.5t-27.5 59.5l-10 24q-30 -86 -65 -143l-287 -467h-233z" />
    <glyph glyph-name="Y" unicode="Y" horiz-adv-x="1368" 
d="M588 0v440l-529 953h240l315 -574q19 -35 40 -85t32 -83l12 -33q43 123 84 201l305 574h224l-506 -940v-453h-217z" />
    <glyph glyph-name="Z" unicode="Z" horiz-adv-x="1200" 
d="M68 0v23l704 1179h-592v191h930v-23l-700 -1180h686v-190h-1028z" />
    <glyph glyph-name="bracketleft" unicode="[" horiz-adv-x="655" 
d="M139 -119v1618h449v-176h-240v-1266h240v-176h-449z" />
    <glyph glyph-name="backslash" unicode="\" horiz-adv-x="843" 
d="M616 -119l-593 1618h204l594 -1618h-205z" />
    <glyph glyph-name="bracketright" unicode="]" horiz-adv-x="655" 
d="M68 -119v176h241v1266h-241v176h448v-1618h-448z" />
    <glyph glyph-name="asciicircum" unicode="^" horiz-adv-x="874" 
d="M125 932l303 475h21l301 -475h-168l-144 203l-145 -203h-168z" />
    <glyph glyph-name="underscore" unicode="_" horiz-adv-x="550" 
d="M-4 -262v184h559v-184h-559z" />
    <glyph glyph-name="grave" unicode="`" horiz-adv-x="1024" 
d="M432 1022l-201 389h238l123 -389h-160z" />
    <glyph glyph-name="a" unicode="a" horiz-adv-x="1077" 
d="M309 119l-49 -119h-205l471 1063h23l473 -1063h-217l-49 119h-447zM690 276l-96 234q-16 38 -30.5 84.5t-21.5 73.5l-7 28q-25 -100 -62 -186l-98 -234h315z" />
    <glyph glyph-name="b" unicode="b" horiz-adv-x="1021" 
d="M135 0v1051h410q146 0 227.5 -74.5t81.5 -185.5q0 -161 -135 -209q102 -25 159.5 -97.5t57.5 -179.5q0 -140 -94.5 -222.5t-261.5 -82.5h-445zM338 651h197q56 0 86 30t30 83q0 52 -32.5 82.5t-92.5 30.5h-188v-226zM338 174h225q82 0 123 42t41 114q0 70 -41.5 111.5
t-122.5 41.5h-225v-309z" />
    <glyph glyph-name="c" unicode="c" horiz-adv-x="1181" 
d="M637 -18q-240 0 -391.5 153.5t-151.5 388.5q0 155 69.5 279t193.5 194t278 70q291 0 436 -221l-164 -111q-98 148 -272 148q-146 0 -237 -101.5t-91 -257.5q0 -154 91.5 -255t238.5 -101q187 0 297 162l168 -109q-149 -239 -465 -239z" />
    <glyph glyph-name="d" unicode="d" horiz-adv-x="1114" 
d="M135 0v1051h332q245 0 399 -145t154 -382q0 -235 -153.5 -379.5t-399.5 -144.5h-332zM344 182h111q176 0 263 90.5t87 251.5q0 160 -87 252t-263 92h-111v-686z" />
    <glyph glyph-name="e" unicode="e" horiz-adv-x="958" 
d="M135 0v1051h705v-183h-496v-321h424v-176h-424v-189h516v-182h-725z" />
    <glyph glyph-name="f" unicode="f" horiz-adv-x="919" 
d="M135 0v1051h692v-185h-483v-344h436v-184h-436v-338h-209z" />
    <glyph glyph-name="g" unicode="g" horiz-adv-x="1253" 
d="M651 -18q-150 0 -276 68t-201.5 193t-75.5 281q0 155 74.5 280t200.5 194t278 69q292 0 439 -215l-164 -113q-92 144 -277 144q-147 0 -242.5 -102.5t-95.5 -256.5q0 -155 95.5 -257.5t244.5 -102.5q121 0 204.5 61t107.5 156h-279v170h490q14 -253 -128.5 -411
t-394.5 -158z" />
    <glyph glyph-name="h" unicode="h" horiz-adv-x="1144" 
d="M135 0v1051h209v-529h457v529h209v-1051h-209v336h-457v-336h-209z" />
    <glyph glyph-name="i" unicode="i" horiz-adv-x="489" 
d="M139 0v1051h211v-1051h-211z" />
    <glyph glyph-name="j" unicode="j" horiz-adv-x="831" 
d="M371 -18q-123 0 -203.5 55.5t-122.5 146.5l168 97q33 -59 66 -87t86 -28q127 0 127 147v738h208v-746q0 -162 -90 -242.5t-239 -80.5z" />
    <glyph glyph-name="k" unicode="k" horiz-adv-x="1073" 
d="M326 461q96 170 129 215l284 375h236l-369 -478l422 -573h-252l-313 426l-119 -139v-287h-209v1051h209v-359q0 -72 -18 -231z" />
    <glyph glyph-name="l" unicode="l" horiz-adv-x="903" 
d="M135 0v1051h209v-869h477v-182h-686z" />
    <glyph glyph-name="m" unicode="m" horiz-adv-x="1357" 
d="M121 0l104 1061h21l360 -494q16 -23 34 -53.5t28 -49.5l10 -20q41 74 76 123l358 494h21l104 -1061h-203l-39 414q-4 44 -6.5 93.5t-2.5 76.5l-1 28q-41 -92 -98 -172l-199 -276h-18l-199 276q-27 38 -53 81.5t-38 68.5l-13 24q3 -100 -7 -202l-41 -412h-198z" />
    <glyph glyph-name="n" unicode="n" horiz-adv-x="1132" 
d="M977 -14l-537 522q-28 27 -61 65t-51 62l-19 24q17 -112 17 -198v-461h-191v1063h21l532 -518q33 -32 65.5 -70t48.5 -60l17 -22q-12 107 -12 199v459h190v-1065h-20z" />
    <glyph glyph-name="o" unicode="o" horiz-adv-x="1306" 
d="M653 -18q-151 0 -278.5 68.5t-204 193.5t-76.5 280q0 118 45 220.5t121 172.5t178 110t215 40q114 0 216 -40t178 -110.5t120.5 -172.5t44.5 -220q0 -155 -76 -280t-203.5 -193.5t-279.5 -68.5zM653 168q152 0 248 99.5t96 256.5q0 156 -96.5 257.5t-247.5 101.5
t-247.5 -101.5t-96.5 -257.5q0 -157 96 -256.5t248 -99.5z" />
    <glyph glyph-name="p" unicode="p" horiz-adv-x="997" 
d="M135 0v1051h309q218 0 341.5 -108.5t123.5 -297.5t-123.5 -297t-341.5 -108h-100v-240h-209zM344 420h94q132 0 194 57t62 168q0 223 -256 223h-94v-448z" />
    <glyph glyph-name="q" unicode="q" horiz-adv-x="1306" 
d="M745 -8v-228h-186v230q-200 30 -332.5 175.5t-132.5 354.5q0 118 45 220.5t121 172.5t178 110t215 40q114 0 216 -40t178 -110.5t120.5 -172.5t44.5 -220q0 -209 -132.5 -354.5t-334.5 -177.5zM559 172v197h186v-199q116 29 184 123.5t68 230.5q0 156 -96.5 257.5
t-247.5 101.5t-247.5 -101.5t-96.5 -257.5q0 -136 67.5 -230t182.5 -122z" />
    <glyph glyph-name="r" unicode="r" horiz-adv-x="1013" 
d="M717 326l211 -326h-236l-170 266q-46 -4 -69 -4h-109v-262h-209v1051h318q213 0 336.5 -104t123.5 -294q0 -117 -51 -200.5t-145 -126.5zM344 440h102q254 0 254 213q0 215 -254 215h-102v-428z" />
    <glyph glyph-name="s" unicode="s" horiz-adv-x="905" 
d="M455 -18q-146 0 -254 66t-160 171l170 92q79 -151 242 -151q74 0 121 32.5t47 86.5q0 53 -37 86t-131 73l-64 29q-64 27 -109.5 54.5t-82.5 64.5t-55.5 86.5t-18.5 111.5q0 127 89.5 205t229.5 78q106 0 184.5 -39t137.5 -125l-152 -104q-68 96 -166 96q-56 0 -89 -28.5
t-33 -78.5q0 -49 30 -77.5t99 -59.5l65 -28q75 -31 127 -60.5t95.5 -70t65 -93t21.5 -118.5q0 -139 -100.5 -219t-271.5 -80z" />
    <glyph glyph-name="t" unicode="t" horiz-adv-x="983" 
d="M387 0v868h-313v183h835v-183h-313v-868h-209z" />
    <glyph glyph-name="u" unicode="u" horiz-adv-x="1099" 
d="M553 -18q-194 0 -310 106.5t-116 304.5v658h209v-652q0 -231 215 -231q213 0 213 231v652h209v-658q0 -197 -115.5 -304t-304.5 -107z" />
    <glyph glyph-name="v" unicode="v" horiz-adv-x="1081" 
d="M530 -14l-477 1065h230l190 -457q19 -45 37.5 -102t27.5 -91l9 -34q28 127 71 227l195 457h215l-475 -1065h-23z" />
    <glyph glyph-name="w" unicode="w" horiz-adv-x="1511" 
d="M436 -14l-385 1065h225l154 -449q13 -38 26 -89t20 -83l7 -31q27 113 66 203l203 461h20l207 -461q18 -42 35 -92.5t25 -80.5l8 -30q22 111 53 203l151 449h209l-379 -1065h-22l-232 518q-16 37 -32.5 83t-24.5 73l-8 28q-29 -102 -66 -184l-237 -518h-23z" />
    <glyph glyph-name="x" unicode="x" horiz-adv-x="1099" 
d="M59 0l361 578l-299 473h235l127 -209q19 -32 36 -72t25 -64l7 -24q31 90 70 160l124 209h226l-297 -476l366 -575h-235l-178 281q-21 35 -42 78.5t-31 69.5l-11 26q-37 -98 -82 -174l-172 -281h-230z" />
    <glyph glyph-name="y" unicode="y" horiz-adv-x="1083" 
d="M442 0v336l-393 715h240l180 -338q22 -40 42.5 -93.5t30.5 -87.5l9 -34q35 129 80 215l178 338h225l-381 -711v-340h-211z" />
    <glyph glyph-name="z" unicode="z" horiz-adv-x="983" 
d="M76 0v20l499 850h-419v181h745v-21l-502 -850h480v-180h-803z" />
    <glyph glyph-name="braceleft" unicode="{" horiz-adv-x="798" 
d="M586 -119q-297 0 -297 295v180q0 75 -29 107.5t-90 32.5h-117v176h117q61 0 90 32t29 107v393q0 295 297 295h145v-176h-129q-55 0 -79.5 -28.5t-24.5 -96.5v-412q0 -96 -41.5 -141.5t-118.5 -60.5q160 -28 160 -203v-201q0 -68 24.5 -95.5t79.5 -27.5h129v-176h-145z
" />
    <glyph glyph-name="bar" unicode="|" horiz-adv-x="526" 
d="M164 -121v1620h198v-1620h-198z" />
    <glyph glyph-name="braceright" unicode="}" horiz-adv-x="798" 
d="M68 -119v176h129q55 0 78.5 27.5t23.5 95.5v201q0 96 42.5 142t119.5 61q-76 13 -119 59.5t-43 142.5v412q0 68 -23.5 96.5t-78.5 28.5h-129v176h145q297 0 297 -295v-393q0 -75 29 -107t90 -32h116v-176h-116q-61 0 -90 -32.5t-29 -107.5v-180q0 -295 -297 -295h-145z
" />
    <glyph glyph-name="asciitilde" unicode="~" horiz-adv-x="819" 
d="M231 440l-145 15q6 122 61 189t140 67q65 0 135 -56q31 -23 42.5 -31t27 -15t30.5 -7q57 0 66 107l145 -15q-6 -124 -60 -190t-141 -66q-65 0 -135 56q-6 5 -18.5 14.5t-16.5 12.5t-13 9t-13 8t-11 5t-13 3.5t-13 0.5q-59 0 -68 -107z" />
    <glyph glyph-name="nbspace" unicode="&#xa0;" horiz-adv-x="372" 
 />
    <glyph glyph-name="exclamdown" unicode="&#xa1;" horiz-adv-x="548" 
d="M274 1114q-59 0 -102 42t-43 104t42.5 103.5t102.5 41.5t103 -41.5t43 -103.5t-43 -104t-103 -42zM158 0l35 954h163l35 -954h-233z" />
    <glyph glyph-name="cent" unicode="&#xa2;" horiz-adv-x="841" 
d="M420 -229v215q-151 21 -249.5 127t-98.5 256q0 152 98.5 259t249.5 126v204h112v-202q170 -20 259 -133l-134 -119q-48 64 -125 78v-426q82 13 138 80l131 -123q-99 -113 -269 -127v-215h-112zM420 162v416q-65 -17 -104.5 -73.5t-39.5 -135.5t39 -134.5t105 -72.5z" />
    <glyph glyph-name="sterling" unicode="&#xa3;" horiz-adv-x="1044" 
d="M328 436h-181v148h109q-37 98 -37 172q0 138 94.5 224.5t259.5 86.5q249 0 357 -199l-166 -100q-60 121 -180 121q-69 0 -109.5 -40t-40.5 -110q0 -52 39 -155h305v-148h-246q29 -92 29 -164q0 -19 -4 -55q96 -49 172 -49q92 0 156 80l129 -131q-56 -72 -120 -103.5
t-157 -31.5q-118 0 -248 94q-87 -94 -229 -94q-91 0 -148 50t-57 130q0 78 54.5 127t140.5 49q46 0 121 -23q-9 48 -43 121zM362 174q-56 39 -98 39q-65 0 -65 -51q0 -26 17 -41t48 -15q72 0 98 68z" />
    <glyph glyph-name="currency" unicode="&#xa4;" horiz-adv-x="1193" 
d="M197 567h-123v148h149q52 160 179.5 256t297.5 96q270 0 406 -209l-164 -104q-80 127 -244 127q-91 0 -156 -43.5t-100 -122.5h351v-148h-383q-2 -14 -2 -43q0 -12 1 -32.5t1 -30.5h383v-148h-338q76 -149 247 -149q105 0 166 41.5t103 113.5l170 -94
q-30 -55 -67.5 -96.5t-89.5 -76t-124.5 -52.5t-161.5 -18q-166 0 -290 89.5t-179 241.5h-155v148h123q-2 20 -2 63q0 29 2 43z" />
    <glyph glyph-name="yen" unicode="&#xa5;" horiz-adv-x="1075" 
d="M678 406l-35 -68v-41h313v-147h-313v-150h-209v150h-311v147h311v39l-37 70h-274v147h196l-264 498h234l178 -359q19 -37 37.5 -91.5t27.5 -90.5l9 -35q39 137 80 217l180 359h219l-264 -498h200v-147h-278z" />
    <glyph glyph-name="brokenbar" unicode="&#xa6;" 
d="M227 371q-58 0 -99.5 40.5t-41.5 102.5q0 60 41.5 99.5t99.5 39.5q57 0 98.5 -39.5t41.5 -99.5q0 -62 -41.5 -102.5t-98.5 -40.5z" />
    <glyph glyph-name="section" unicode="&#xa7;" horiz-adv-x="948" 
d="M211 610q-66 75 -66 183q0 120 91 197t235 77q221 0 315 -158l-155 -100q-51 88 -158 88q-58 0 -88.5 -28.5t-30.5 -71.5q0 -40 21.5 -66t68.5 -47l220 -86q110 -45 162.5 -107.5t52.5 -152.5q0 -62 -38.5 -111t-101.5 -80q68 -71 68 -163q0 -127 -93 -201t-253 -74
q-134 0 -235.5 52t-151.5 135l159 106q79 -121 216 -121q72 0 107.5 26.5t35.5 67.5q0 36 -23 61t-71 46l-222 86q-103 42 -154.5 100t-51.5 140q0 72 38.5 122.5t102.5 79.5zM621 231q65 24 65 86q0 37 -25.5 64t-80.5 49l-236 94q-18 6 -33 15q-26 -13 -40.5 -36
t-14.5 -48q0 -43 23 -70.5t79 -50.5l228 -88q6 -2 17.5 -7.5t17.5 -7.5z" />
    <glyph glyph-name="dieresis" unicode="&#xa8;" horiz-adv-x="1024" 
d="M711 1047q-48 0 -85.5 36.5t-37.5 87.5q0 50 37.5 86.5t85.5 36.5q50 0 87.5 -36.5t37.5 -86.5q0 -52 -37.5 -88t-87.5 -36zM313 1047q-50 0 -87.5 36t-37.5 88q0 50 37.5 86.5t87.5 36.5t86.5 -36t36.5 -87q0 -52 -36.5 -88t-86.5 -36z" />
    <glyph glyph-name="copyright" unicode="&#xa9;" horiz-adv-x="1220" 
d="M612 -12q-108 0 -207.5 41t-173 111.5t-117.5 171.5t-44 214q0 115 44 216.5t117.5 172t173 111.5t207.5 41q145 0 268 -69t197 -194t74 -278q0 -151 -74 -275.5t-197.5 -193.5t-267.5 -69zM612 88q183 0 307.5 123t124.5 315q0 194 -124.5 317.5t-307.5 123.5
q-121 0 -220 -55t-157.5 -156.5t-58.5 -229.5q0 -192 126 -315t310 -123zM621 223q-132 0 -220 86.5t-88 216.5q0 133 86.5 220.5t216.5 87.5q146 0 244 -109l-115 -104q-45 57 -116 57q-62 0 -98.5 -42t-36.5 -110q0 -64 37.5 -106.5t99.5 -42.5q75 0 119 59l114 -102
q-92 -111 -243 -111z" />
    <glyph glyph-name="ordfeminine" unicode="&#xaa;" horiz-adv-x="849" 
d="M557 758q-1 84 -36.5 118.5t-104.5 34.5q-46 0 -85.5 -14.5t-60 -30.5t-43.5 -41l-114 105q112 137 321 137q66 0 122 -18.5t99.5 -55t68 -98.5t24.5 -143v-428h-191l4 92q-77 -111 -221 -111q-117 0 -192.5 58.5t-75.5 168.5q0 111 81.5 168.5t211.5 57.5h192zM557 629
h-174q-123 0 -123 -84q0 -43 33 -66.5t94 -23.5q78 0 124 34.5t46 92.5v47z" />
    <glyph glyph-name="guillemotleft" unicode="&#xab;" horiz-adv-x="919" 
d="M643 72l-194 334v16l194 330h205l-199 -338l199 -342h-205zM264 72l-192 334v16l192 330h207l-199 -338l199 -342h-207z" />
    <glyph glyph-name="logicalnot" unicode="&#xac;" 
d="M227 371q-58 0 -99.5 40.5t-41.5 102.5q0 60 41.5 99.5t99.5 39.5q57 0 98.5 -39.5t41.5 -99.5q0 -62 -41.5 -102.5t-98.5 -40.5z" />
    <glyph glyph-name="registered" unicode="&#xae;" horiz-adv-x="1044" 
d="M520 530q-188 0 -319 126.5t-131 316.5q0 191 131 317.5t319 126.5q190 0 322.5 -126.5t132.5 -317.5q0 -125 -61.5 -227.5t-165.5 -159t-228 -56.5zM520 614q157 0 259 98t102 259q0 164 -101.5 262t-259.5 98q-156 0 -255 -97.5t-99 -262.5q0 -161 99 -259t255 -98z
M639 883l86 -140h-119l-67 115h-11h-61v-115h-113v465h170q94 0 146.5 -51t52.5 -123q0 -47 -21.5 -87t-62.5 -64zM467 946h59q86 0 86 84q0 38 -23.5 60t-62.5 22h-59v-166z" />
    <glyph glyph-name="macron" unicode="&#xaf;" horiz-adv-x="1024" 
d="M281 1079v156h462v-156h-462z" />
    <glyph glyph-name="macron" unicode="&#x2c9;" horiz-adv-x="1024" 
d="M281 1079v156h462v-156h-462z" />
    <glyph glyph-name="degree" unicode="&#xb0;" horiz-adv-x="671" 
d="M336 567q-107 0 -184.5 73.5t-77.5 176.5q0 106 77 178t185 72q110 0 186 -72t76 -178q0 -103 -76.5 -176.5t-185.5 -73.5zM336 696q53 0 86 33.5t33 87.5q0 55 -33 89t-86 34t-85 -34t-32 -89q0 -54 32.5 -87.5t84.5 -33.5z" />
    <glyph glyph-name="twosuperior" unicode="&#xb2;" 
d="M227 371q-58 0 -99.5 40.5t-41.5 102.5q0 60 41.5 99.5t99.5 39.5q57 0 98.5 -39.5t41.5 -99.5q0 -62 -41.5 -102.5t-98.5 -40.5z" />
    <glyph glyph-name="threesuperior" unicode="&#xb3;" 
d="M227 371q-58 0 -99.5 40.5t-41.5 102.5q0 60 41.5 99.5t99.5 39.5q57 0 98.5 -39.5t41.5 -99.5q0 -62 -41.5 -102.5t-98.5 -40.5z" />
    <glyph glyph-name="acute" unicode="&#xb4;" horiz-adv-x="1024" 
d="M432 1022l123 389h238l-201 -389h-160z" />
    <glyph glyph-name="mu" unicode="&#xb5;" 
d="M227 371q-58 0 -99.5 40.5t-41.5 102.5q0 60 41.5 99.5t99.5 39.5q57 0 98.5 -39.5t41.5 -99.5q0 -62 -41.5 -102.5t-98.5 -40.5z" />
    <glyph glyph-name="mu" unicode="&#x3bc;" 
d="M227 371q-58 0 -99.5 40.5t-41.5 102.5q0 60 41.5 99.5t99.5 39.5q57 0 98.5 -39.5t41.5 -99.5q0 -62 -41.5 -102.5t-98.5 -40.5z" />
    <glyph glyph-name="paragraph" unicode="&#xb6;" horiz-adv-x="1361" 
d="M633 0v561h-103q-105 0 -190 32.5t-140 89t-84.5 131t-29.5 159.5q0 113 50 207t153 153.5t241 59.5h664v-1393h-205v1210h-149v-1210h-207zM537 743h96v467h-96q-101 0 -162.5 -61t-61.5 -172t61.5 -172.5t162.5 -61.5z" />
    <glyph glyph-name="periodcentered" unicode="&#xb7;" horiz-adv-x="456" 
d="M229 371q-58 0 -99.5 40.5t-41.5 102.5q0 60 41.5 99.5t99.5 39.5q57 0 98.5 -39.5t41.5 -99.5q0 -62 -41.5 -102.5t-98.5 -40.5z" />
    <glyph glyph-name="periodcentered" unicode="&#x2219;" horiz-adv-x="456" 
d="M229 371q-58 0 -99.5 40.5t-41.5 102.5q0 60 41.5 99.5t99.5 39.5q57 0 98.5 -39.5t41.5 -99.5q0 -62 -41.5 -102.5t-98.5 -40.5z" />
    <glyph glyph-name="cedilla" unicode="&#xb8;" horiz-adv-x="1024" 
d="M528 -483q-158 0 -225 123l107 63q33 -68 102 -68q36 0 61 21.5t25 60.5t-26.5 62.5t-73.5 23.5h-56v197h117v-94q75 -13 125.5 -64.5t50.5 -134.5q0 -86 -62 -138t-145 -52z" />
    <glyph glyph-name="onesuperior" unicode="&#xb9;" 
d="M227 371q-58 0 -99.5 40.5t-41.5 102.5q0 60 41.5 99.5t99.5 39.5q57 0 98.5 -39.5t41.5 -99.5q0 -62 -41.5 -102.5t-98.5 -40.5z" />
    <glyph glyph-name="ordmasculine" unicode="&#xba;" horiz-adv-x="954" 
d="M477 305q-166 0 -280.5 109t-114.5 272q0 162 115 271.5t280 109.5t280 -109.5t115 -271.5q0 -163 -114.5 -272t-280.5 -109zM477 465q90 0 145.5 61t55.5 160q0 97 -55.5 158t-145.5 61t-143 -60.5t-53 -158.5q0 -99 53 -160t143 -61z" />
    <glyph glyph-name="guillemotright" unicode="&#xbb;" horiz-adv-x="919" 
d="M449 72l198 338l-198 342h206l193 -334v-17l-193 -329h-206zM72 72l198 338l-198 342h204l195 -334v-17l-195 -329h-204z" />
    <glyph glyph-name="onequarter" unicode="&#xbc;" 
d="M227 371q-58 0 -99.5 40.5t-41.5 102.5q0 60 41.5 99.5t99.5 39.5q57 0 98.5 -39.5t41.5 -99.5q0 -62 -41.5 -102.5t-98.5 -40.5z" />
    <glyph glyph-name="onehalf" unicode="&#xbd;" 
d="M227 371q-58 0 -99.5 40.5t-41.5 102.5q0 60 41.5 99.5t99.5 39.5q57 0 98.5 -39.5t41.5 -99.5q0 -62 -41.5 -102.5t-98.5 -40.5z" />
    <glyph glyph-name="threequarters" unicode="&#xbe;" 
d="M227 371q-58 0 -99.5 40.5t-41.5 102.5q0 60 41.5 99.5t99.5 39.5q57 0 98.5 -39.5t41.5 -99.5q0 -62 -41.5 -102.5t-98.5 -40.5z" />
    <glyph glyph-name="questiondown" unicode="&#xbf;" horiz-adv-x="989" 
d="M545 1114q-60 0 -103 42t-43 104t43 103.5t103 41.5q58 0 101.5 -41.5t43.5 -103.5t-43.5 -104t-101.5 -42zM514 -18q-198 0 -309 112t-111 287q0 165 87.5 267.5t260.5 131.5v189h199v-361h-84q-125 0 -185.5 -64.5t-60.5 -162.5q0 -89 55 -151t148 -62q92 0 147 39.5
t97 124.5l168 -96q-50 -123 -155.5 -188.5t-256.5 -65.5z" />
    <glyph glyph-name="Agrave" unicode="&#xc0;" horiz-adv-x="1349" 
d="M592 1538l-201 389h238l123 -389h-160zM59 0l596 1407h25l610 -1407h-225l-80 197h-637l-80 -197h-209zM422 379h485l-174 434q-16 36 -33 88t-26 85l-10 34q-33 -125 -68 -207z" />
    <glyph glyph-name="Aacute" unicode="&#xc1;" horiz-adv-x="1349" 
d="M592 1538l123 389h237l-200 -389h-160zM59 0l596 1407h25l610 -1407h-225l-80 197h-637l-80 -197h-209zM422 379h485l-174 434q-16 36 -33 88t-26 85l-10 34q-33 -125 -68 -207z" />
    <glyph glyph-name="Acircumflex" unicode="&#xc2;" horiz-adv-x="1349" 
d="M362 1536l293 418h23l293 -418h-170l-133 170l-136 -170h-170zM59 0l596 1407h25l610 -1407h-225l-80 197h-637l-80 -197h-209zM422 379h485l-174 434q-16 36 -33 88t-26 85l-10 34q-33 -125 -68 -207z" />
    <glyph glyph-name="Atilde" unicode="&#xc3;" horiz-adv-x="1349" 
d="M485 1532l-145 14q6 122 61 189t140 67q68 0 135 -53q7 -5 19 -14.5t17 -13t13.5 -9.5t13 -8t11.5 -5t13 -4t13 -1q57 0 66 106l145 -14q-6 -123 -60 -189.5t-141 -66.5q-66 0 -135 55q-8 6 -25 19t-22 17t-15.5 10t-18 7.5t-17.5 1.5q-59 0 -68 -108zM59 0l596 1407h25
l610 -1407h-225l-80 197h-637l-80 -197h-209zM422 379h485l-174 434q-16 36 -33 88t-26 85l-10 34q-33 -125 -68 -207z" />
    <glyph glyph-name="Adieresis" unicode="&#xc4;" horiz-adv-x="1349" 
d="M874 1563q-48 0 -85 36.5t-37 88.5q0 50 37 86t85 36q50 0 87.5 -36t37.5 -86q0 -52 -37.5 -88.5t-87.5 -36.5zM477 1563q-50 0 -87.5 36.5t-37.5 88.5q0 50 37.5 86t87.5 36t86.5 -35.5t36.5 -86.5q0 -52 -36.5 -88.5t-86.5 -36.5zM59 0l596 1407h25l610 -1407h-225
l-80 197h-637l-80 -197h-209zM422 379h485l-174 434q-16 36 -33 88t-26 85l-10 34q-33 -125 -68 -207z" />
    <glyph glyph-name="Aring" unicode="&#xc5;" horiz-adv-x="1349" 
d="M676 1483q-100 0 -170 65.5t-70 157.5q0 94 69.5 159.5t170.5 65.5t170 -65.5t69 -159.5q0 -92 -69.5 -157.5t-169.5 -65.5zM59 0l596 1407h25l610 -1407h-225l-80 197h-637l-80 -197h-209zM676 1604q43 0 70.5 27.5t27.5 74.5q0 49 -27 76.5t-71 27.5t-71 -27.5
t-27 -76.5q0 -47 27.5 -74.5t70.5 -27.5zM422 379h485l-174 434q-16 36 -33 88t-26 85l-10 34q-33 -125 -68 -207z" />
    <glyph glyph-name="AE" unicode="&#xc6;" horiz-adv-x="1988" 
d="M43 0l942 1393h854v-191h-668v-540h592v-187h-592v-285h697v-190h-912v197h-553l-131 -197h-229zM530 383h426v518q0 35 4 81t8 74l5 29q-41 -95 -86 -163z" />
    <glyph glyph-name="Ccedilla" unicode="&#xc7;" horiz-adv-x="1488" 
d="M717 -12q-129 18 -241.5 78t-194.5 151t-129.5 215.5t-47.5 263.5q0 153 56.5 286.5t152.5 226.5t227.5 146.5t278.5 53.5q373 0 557 -276l-166 -119q-61 94 -160 147t-231 53q-216 0 -354.5 -147t-138.5 -371t139 -372t354 -148q264 0 412 219l166 -116
q-92 -138 -235 -216t-328 -81v-76q75 -13 125.5 -64.5t50.5 -134.5q0 -86 -62 -138t-145 -52q-158 0 -225 123l106 63q33 -68 102 -68q36 0 61 21.5t25 60.5t-26.5 62.5t-73.5 23.5h-55v185z" />
    <glyph glyph-name="Egrave" unicode="&#xc8;" horiz-adv-x="1202" 
d="M553 1538l-201 389h238l123 -389h-160zM168 0v1393h885v-191h-668v-540h592v-187h-592v-285h696v-190h-913z" />
    <glyph glyph-name="Eacute" unicode="&#xc9;" horiz-adv-x="1202" 
d="M528 1538l123 389h238l-201 -389h-160zM168 0v1393h885v-191h-668v-540h592v-187h-592v-285h696v-190h-913z" />
    <glyph glyph-name="Ecircumflex" unicode="&#xca;" horiz-adv-x="1202" 
d="M313 1536l293 418h23l293 -418h-170l-134 170l-135 -170h-170zM168 0v1393h885v-191h-668v-540h592v-187h-592v-285h696v-190h-913z" />
    <glyph glyph-name="Edieresis" unicode="&#xcb;" horiz-adv-x="1202" 
d="M815 1563q-48 0 -85.5 37t-37.5 88q0 50 37.5 86t85.5 36q50 0 87.5 -36t37.5 -86q0 -52 -37.5 -88.5t-87.5 -36.5zM418 1563q-50 0 -87.5 36.5t-37.5 88.5q0 50 37.5 86t87.5 36t86.5 -35.5t36.5 -86.5q0 -52 -36.5 -88.5t-86.5 -36.5zM168 0v1393h885v-191h-668v-540
h592v-187h-592v-285h696v-190h-913z" />
    <glyph glyph-name="Igrave" unicode="&#xcc;" horiz-adv-x="565" 
d="M199 1538l-201 389h238l122 -389h-159zM176 0v1393h215v-1393h-215z" />
    <glyph glyph-name="Iacute" unicode="&#xcd;" horiz-adv-x="565" 
d="M205 1538l123 389h237l-200 -389h-160zM176 0v1393h215v-1393h-215z" />
    <glyph glyph-name="Icircumflex" unicode="&#xce;" horiz-adv-x="567" 
d="M-23 1536l293 418h23l293 -418h-170l-133 170l-136 -170h-170zM176 0v1393h215v-1393h-215z" />
    <glyph glyph-name="Idieresis" unicode="&#xcf;" horiz-adv-x="563" 
d="M479 1563q-48 0 -85.5 37t-37.5 88q0 50 37.5 86t85.5 36q50 0 87.5 -36t37.5 -86q0 -52 -37.5 -88.5t-87.5 -36.5zM82 1563q-50 0 -87.5 36.5t-37.5 88.5q0 50 37.5 86t87.5 36t86.5 -35.5t36.5 -86.5q0 -52 -36.5 -88.5t-86.5 -36.5zM176 0v1393h215v-1393h-215z" />
    <glyph glyph-name="Eth" unicode="&#xd0;" horiz-adv-x="1396" 
d="M168 0v492h-141v186h141v715h391q217 0 384.5 -88t259 -246.5t91.5 -362.5q0 -310 -202.5 -503t-532.5 -193h-391zM385 190h162q257 0 389.5 137.5t132.5 368.5t-132.5 368.5t-389.5 137.5h-162v-524h342v-186h-342v-302z" />
    <glyph glyph-name="Ntilde" unicode="&#xd1;" horiz-adv-x="1447" 
d="M545 1532l-146 14q6 122 61 189t140 67q68 0 135 -53q6 -4 17 -12.5t15 -12t12.5 -9t12.5 -8t10.5 -6t11 -4.5t10.5 -2t12 -1q56 0 65 106l146 -14q-6 -123 -60 -189.5t-141 -66.5q-66 0 -135 55q-8 6 -21.5 16.5t-19 14.5t-14.5 10t-14.5 8t-13.5 4t-16 2
q-58 0 -67 -108zM1253 -14l-768 827q-24 26 -57 65t-54 65l-20 26q15 -115 15 -201v-768h-201v1407h29l768 -825q24 -25 56 -64t53 -66l20 -26q-15 123 -15 201v766h201v-1407h-27z" />
    <glyph glyph-name="Ograve" unicode="&#xd2;" horiz-adv-x="1644" 
d="M743 1538l-200 389h237l123 -389h-160zM823 -18q-198 0 -362 91t-260.5 255t-96.5 368q0 153 56.5 286.5t153 227.5t229 147.5t280.5 53.5q147 0 279 -53.5t228.5 -147t153 -227.5t56.5 -287q0 -204 -96 -368t-260 -255t-361 -91zM823 176q217 0 356.5 148t139.5 372
t-139.5 372.5t-356.5 148.5t-357 -148.5t-140 -372.5t140 -372t357 -148z" />
    <glyph glyph-name="Oacute" unicode="&#xd3;" horiz-adv-x="1644" 
d="M743 1538l123 389h238l-201 -389h-160zM823 -18q-198 0 -362 91t-260.5 255t-96.5 368q0 153 56.5 286.5t153 227.5t229 147.5t280.5 53.5q147 0 279 -53.5t228.5 -147t153 -227.5t56.5 -287q0 -204 -96 -368t-260 -255t-361 -91zM823 176q217 0 356.5 148t139.5 372
t-139.5 372.5t-356.5 148.5t-357 -148.5t-140 -372.5t140 -372t357 -148z" />
    <glyph glyph-name="Ocircumflex" unicode="&#xd4;" horiz-adv-x="1644" 
d="M518 1536l293 418h23l292 -418h-170l-133 170l-135 -170h-170zM823 -18q-198 0 -362 91t-260.5 255t-96.5 368q0 153 56.5 286.5t153 227.5t229 147.5t280.5 53.5q147 0 279 -53.5t228.5 -147t153 -227.5t56.5 -287q0 -204 -96 -368t-260 -255t-361 -91zM823 176
q217 0 356.5 148t139.5 372t-139.5 372.5t-356.5 148.5t-357 -148.5t-140 -372.5t140 -372t357 -148z" />
    <glyph glyph-name="Otilde" unicode="&#xd5;" horiz-adv-x="1644" 
d="M645 1532l-145 14q6 123 61 189.5t139 66.5q69 0 136 -53q7 -5 19 -14.5t17 -13t13.5 -9.5t13 -8t11.5 -5t13 -4t13 -1q56 0 65 106l146 -14q-6 -123 -60 -189.5t-141 -66.5q-66 0 -135 55q-8 6 -25 19t-22 17t-15.5 10t-18 7.5t-17.5 1.5q-59 0 -68 -108zM823 -18
q-198 0 -362 91t-260.5 255t-96.5 368q0 153 56.5 286.5t153 227.5t229 147.5t280.5 53.5q147 0 279 -53.5t228.5 -147t153 -227.5t56.5 -287q0 -204 -96 -368t-260 -255t-361 -91zM823 176q217 0 356.5 148t139.5 372t-139.5 372.5t-356.5 148.5t-357 -148.5t-140 -372.5
t140 -372t357 -148z" />
    <glyph glyph-name="Odieresis" unicode="&#xd6;" horiz-adv-x="1644" 
d="M1022 1563q-48 0 -85.5 37t-37.5 88q0 50 37.5 86t85.5 36q50 0 87.5 -36t37.5 -86q0 -52 -37.5 -88.5t-87.5 -36.5zM625 1563q-50 0 -87.5 36.5t-37.5 88.5q0 50 37.5 86t87.5 36t86.5 -35.5t36.5 -86.5q0 -52 -36.5 -88.5t-86.5 -36.5zM823 -18q-198 0 -362 91
t-260.5 255t-96.5 368q0 153 56.5 286.5t153 227.5t229 147.5t280.5 53.5q147 0 279 -53.5t228.5 -147t153 -227.5t56.5 -287q0 -204 -96 -368t-260 -255t-361 -91zM823 176q217 0 356.5 148t139.5 372t-139.5 372.5t-356.5 148.5t-357 -148.5t-140 -372.5t140 -372
t357 -148z" />
    <glyph glyph-name="multiply" unicode="&#xd7;" 
d="M227 371q-58 0 -99.5 40.5t-41.5 102.5q0 60 41.5 99.5t99.5 39.5q57 0 98.5 -39.5t41.5 -99.5q0 -62 -41.5 -102.5t-98.5 -40.5z" />
    <glyph glyph-name="Oslash" unicode="&#xd8;" horiz-adv-x="1640" 
d="M209 -20l-121 118l162 158q-148 191 -148 440q0 152 56.5 285.5t153 227t229 148t280.5 54.5q255 0 451 -156l160 156l120 -119l-159 -157q145 -189 145 -439q0 -151 -56.5 -284.5t-153 -227.5t-228.5 -148t-279 -54q-257 0 -450 153zM406 408l720 708q-125 103 -305 103
q-217 0 -357 -149.5t-140 -373.5q0 -164 82 -288zM821 174q217 0 357.5 149t140.5 373q0 160 -82 289l-723 -709q127 -102 307 -102z" />
    <glyph glyph-name="Ugrave" unicode="&#xd9;" horiz-adv-x="1380" 
d="M610 1538l-200 389h237l123 -389h-160zM690 -18q-115 0 -211 32t-167.5 94t-111.5 159.5t-40 221.5v904h217v-891q0 -326 313 -326q316 0 316 326v891h215v-904q0 -124 -40.5 -221.5t-112.5 -159.5t-168 -94t-210 -32z" />
    <glyph glyph-name="Uacute" unicode="&#xda;" horiz-adv-x="1380" 
d="M610 1538l123 389h238l-201 -389h-160zM690 -18q-115 0 -211 32t-167.5 94t-111.5 159.5t-40 221.5v904h217v-891q0 -326 313 -326q316 0 316 326v891h215v-904q0 -124 -40.5 -221.5t-112.5 -159.5t-168 -94t-210 -32z" />
    <glyph glyph-name="Ucircumflex" unicode="&#xdb;" horiz-adv-x="1380" 
d="M385 1536l293 418h22l293 -418h-170l-133 170l-135 -170h-170zM690 -18q-115 0 -211 32t-167.5 94t-111.5 159.5t-40 221.5v904h217v-891q0 -326 313 -326q316 0 316 326v891h215v-904q0 -124 -40.5 -221.5t-112.5 -159.5t-168 -94t-210 -32z" />
    <glyph glyph-name="Udieresis" unicode="&#xdc;" horiz-adv-x="1380" 
d="M889 1563q-48 0 -85.5 37t-37.5 88q0 50 37.5 86t85.5 36q50 0 87.5 -36t37.5 -86q0 -52 -37.5 -88.5t-87.5 -36.5zM492 1563q-50 0 -87.5 36.5t-37.5 88.5q0 50 37.5 86t87.5 36t86 -35.5t36 -86.5q0 -52 -36 -88.5t-86 -36.5zM690 -18q-115 0 -211 32t-167.5 94
t-111.5 159.5t-40 221.5v904h217v-891q0 -326 313 -326q316 0 316 326v891h215v-904q0 -124 -40.5 -221.5t-112.5 -159.5t-168 -94t-210 -32z" />
    <glyph glyph-name="Yacute" unicode="&#xdd;" horiz-adv-x="1368" 
d="M606 1538l123 389h238l-201 -389h-160zM588 0v440l-529 953h240l315 -574q19 -35 40 -85t32 -83l12 -33q43 123 84 201l305 574h224l-506 -940v-453h-217z" />
    <glyph glyph-name="Thorn" unicode="&#xde;" horiz-adv-x="1212" 
d="M168 0v1393h217v-156h139q281 0 436.5 -144t155.5 -388q0 -243 -156 -386t-436 -143h-139v-176h-217zM385 365h131q379 0 379 340q0 342 -379 342h-131v-682z" />
    <glyph glyph-name="germandbls" unicode="&#xdf;" horiz-adv-x="1810" 
d="M1360 -18q-146 0 -254 66t-160 171l170 92q79 -151 242 -151q74 0 121 32.5t47 86.5q0 53 -37 86t-131 73l-64 29q-64 27 -109.5 54.5t-82.5 64.5t-55.5 86.5t-18.5 111.5q0 127 90 205t230 78q106 0 184 -39t137 -125l-151 -104q-68 96 -166 96q-56 0 -89.5 -28.5
t-33.5 -78.5q0 -49 30 -77.5t99 -59.5l65 -28q75 -31 127 -60.5t96 -70t65.5 -93t21.5 -118.5q0 -139 -101 -219t-272 -80zM455 -18q-146 0 -254 66t-160 171l170 92q79 -151 242 -151q74 0 121 32.5t47 86.5q0 53 -37 86t-131 73l-64 29q-64 27 -109.5 54.5t-82.5 64.5
t-55.5 86.5t-18.5 111.5q0 127 89.5 205t229.5 78q106 0 184.5 -39t137.5 -125l-152 -104q-68 96 -166 96q-56 0 -89 -28.5t-33 -78.5q0 -49 30 -77.5t99 -59.5l65 -28q75 -31 127 -60.5t95.5 -70t65 -93t21.5 -118.5q0 -139 -100.5 -219t-271.5 -80z" />
    <glyph glyph-name="agrave" unicode="&#xe0;" horiz-adv-x="1077" 
d="M459 1186l-201 389h238l122 -389h-159zM309 119l-49 -119h-205l471 1063h23l473 -1063h-217l-49 119h-447zM690 276l-96 234q-16 38 -30.5 84.5t-21.5 73.5l-7 28q-25 -100 -62 -186l-98 -234h315z" />
    <glyph glyph-name="aacute" unicode="&#xe1;" horiz-adv-x="1077" 
d="M459 1186l123 389h237l-201 -389h-159zM309 119l-49 -119h-205l471 1063h23l473 -1063h-217l-49 119h-447zM690 276l-96 234q-16 38 -30.5 84.5t-21.5 73.5l-7 28q-25 -100 -62 -186l-98 -234h315z" />
    <glyph glyph-name="acircumflex" unicode="&#xe2;" horiz-adv-x="1077" 
d="M231 1184l293 418h23l293 -418h-170l-133 170l-136 -170h-170zM309 119l-49 -119h-205l471 1063h23l473 -1063h-217l-49 119h-447zM690 276l-96 234q-16 38 -30.5 84.5t-21.5 73.5l-7 28q-25 -100 -62 -186l-98 -234h315z" />
    <glyph glyph-name="atilde" unicode="&#xe3;" horiz-adv-x="1077" 
d="M350 1180l-145 14q6 122 61 189t140 67q68 0 135 -53q8 -6 21.5 -16.5t19 -14.5t15 -10.5t15 -8.5t13.5 -4t16 -2q57 0 66 107l145 -14q-6 -123 -60 -189.5t-141 -66.5q-66 0 -135 55q-8 6 -25 19t-22 17t-15.5 10t-18 7.5t-17.5 1.5q-59 0 -68 -108zM309 119l-49 -119
h-205l471 1063h23l473 -1063h-217l-49 119h-447zM690 276l-96 234q-16 38 -30.5 84.5t-21.5 73.5l-7 28q-25 -100 -62 -186l-98 -234h315z" />
    <glyph glyph-name="adieresis" unicode="&#xe4;" horiz-adv-x="1077" 
d="M735 1210q-48 0 -85.5 37t-37.5 88q0 50 37.5 86.5t85.5 36.5q50 0 87.5 -36.5t37.5 -86.5q0 -52 -37.5 -88.5t-87.5 -36.5zM338 1210q-50 0 -87.5 36.5t-37.5 88.5q0 50 37.5 86.5t87.5 36.5t86.5 -36t36.5 -87q0 -52 -36.5 -88.5t-86.5 -36.5zM309 119l-49 -119h-205
l471 1063h23l473 -1063h-217l-49 119h-447zM690 276l-96 234q-16 38 -30.5 84.5t-21.5 73.5l-7 28q-25 -100 -62 -186l-98 -234h315z" />
    <glyph glyph-name="aring" unicode="&#xe5;" horiz-adv-x="1077" 
d="M537 1145q-100 0 -170 65.5t-70 157.5q0 94 69.5 159.5t170.5 65.5t170 -65.5t69 -159.5q0 -92 -69.5 -157.5t-169.5 -65.5zM309 119l-49 -119h-205l471 1063h23l473 -1063h-217l-49 119h-447zM537 1266q43 0 70.5 27.5t27.5 74.5q0 49 -27 77t-71 28t-71.5 -28
t-27.5 -77q0 -46 28 -74t71 -28zM690 276l-96 234q-16 38 -30.5 84.5t-21.5 73.5l-7 28q-25 -100 -62 -186l-98 -234h315z" />
    <glyph glyph-name="ae" unicode="&#xe6;" horiz-adv-x="1574" 
d="M43 0l733 1051h682v-183h-497v-321h425v-176h-425v-189h516v-182h-725v133h-398l-90 -133h-221zM467 293h285v285q0 36 4 83.5t8 76.5l4 30q-47 -107 -92 -170z" />
    <glyph glyph-name="ccedilla" unicode="&#xe7;" horiz-adv-x="1181" 
d="M528 -10q-196 35 -315 181.5t-119 352.5q0 155 69.5 279t193.5 194t278 70q291 0 436 -221l-164 -111q-98 148 -272 148q-146 0 -237 -101.5t-91 -257.5q0 -154 91.5 -255t238.5 -101q187 0 297 162l168 -109q-146 -236 -457 -239v-76q75 -13 125.5 -64.5t50.5 -134.5
q0 -86 -62 -138t-145 -52q-158 0 -225 123l107 63q33 -68 102 -68q36 0 61 21.5t25 60.5t-26.5 62.5t-73.5 23.5h-56v187z" />
    <glyph glyph-name="egrave" unicode="&#xe8;" horiz-adv-x="958" 
d="M420 1186l-201 389h238l123 -389h-160zM135 0v1051h705v-183h-496v-321h424v-176h-424v-189h516v-182h-725z" />
    <glyph glyph-name="eacute" unicode="&#xe9;" horiz-adv-x="958" 
d="M414 1186l123 389h237l-201 -389h-159zM135 0v1051h705v-183h-496v-321h424v-176h-424v-189h516v-182h-725z" />
    <glyph glyph-name="ecircumflex" unicode="&#xea;" horiz-adv-x="958" 
d="M184 1184l293 418h23l293 -418h-170l-134 170l-135 -170h-170zM135 0v1051h705v-183h-496v-321h424v-176h-424v-189h516v-182h-725z" />
    <glyph glyph-name="edieresis" unicode="&#xeb;" horiz-adv-x="958" 
d="M690 1210q-48 0 -85.5 37t-37.5 88q0 50 37.5 86.5t85.5 36.5q50 0 87.5 -36.5t37.5 -86.5q0 -52 -37.5 -88.5t-87.5 -36.5zM293 1210q-50 0 -87.5 36.5t-37.5 88.5q0 50 37.5 86.5t87.5 36.5t86.5 -36t36.5 -87q0 -52 -36.5 -88.5t-86.5 -36.5zM135 0v1051h705v-183
h-496v-321h424v-176h-424v-189h516v-182h-725z" />
    <glyph glyph-name="igrave" unicode="&#xec;" horiz-adv-x="489" 
d="M166 1186l-201 389h238l123 -389h-160zM139 0v1051h211v-1051h-211z" />
    <glyph glyph-name="iacute" unicode="&#xed;" horiz-adv-x="489" 
d="M156 1186l123 389h237l-201 -389h-159zM139 0v1051h211v-1051h-211z" />
    <glyph glyph-name="icircumflex" unicode="&#xee;" horiz-adv-x="489" 
d="M-63 1184l292 418h23l293 -418h-170l-133 170l-136 -170h-169zM139 0v1051h211v-1051h-211z" />
    <glyph glyph-name="idieresis" unicode="&#xef;" horiz-adv-x="489" 
d="M440 1210q-48 0 -85.5 37t-37.5 88q0 50 37.5 86.5t85.5 36.5q50 0 87.5 -36.5t37.5 -86.5q0 -52 -37.5 -88.5t-87.5 -36.5zM43 1210q-50 0 -87.5 36.5t-37.5 88.5q0 50 37.5 86.5t87.5 36.5t86.5 -36t36.5 -87q0 -52 -36.5 -88.5t-86.5 -36.5zM139 0v1051h211v-1051
h-211z" />
    <glyph glyph-name="eth" unicode="&#xf0;" horiz-adv-x="1114" 
d="M135 0v371h-94v176h94v504h336q243 0 396 -145t153 -382q0 -235 -152.5 -379.5t-396.5 -144.5h-336zM344 182h115q173 0 259.5 90.5t86.5 251.5q0 160 -86.5 252t-259.5 92h-115v-321h238v-176h-238v-189z" />
    <glyph glyph-name="ntilde" unicode="&#xf1;" horiz-adv-x="1130" 
d="M383 1180l-145 14q6 123 61 189.5t139 66.5q68 0 135 -53q7 -5 19 -14.5t17 -13t13.5 -9.5t13.5 -8.5t12 -5.5t13 -4t13 -1q56 0 65 107l146 -14q-6 -123 -60 -189.5t-141 -66.5q-66 0 -135 55q-8 6 -25 19t-22 17t-15.5 10t-18 7.5t-17.5 1.5q-59 0 -68 -108zM977 -14
l-537 522q-28 27 -61 65t-51 62l-19 24q17 -112 17 -198v-461h-191v1063h21l532 -518q33 -32 65.5 -70t48.5 -60l17 -22q-12 107 -12 199v459h190v-1065h-20z" />
    <glyph glyph-name="ograve" unicode="&#xf2;" horiz-adv-x="1306" 
d="M573 1186l-200 389h237l123 -389h-160zM653 -18q-151 0 -278.5 68.5t-204 193.5t-76.5 280q0 118 45 220.5t121 172.5t178 110t215 40q114 0 216 -40t178 -110.5t120.5 -172.5t44.5 -220q0 -155 -76 -280t-203.5 -193.5t-279.5 -68.5zM653 168q152 0 248 99.5t96 256.5
q0 156 -96.5 257.5t-247.5 101.5t-247.5 -101.5t-96.5 -257.5q0 -157 96 -256.5t248 -99.5z" />
    <glyph glyph-name="oacute" unicode="&#xf3;" horiz-adv-x="1306" 
d="M573 1186l123 389h238l-201 -389h-160zM653 -18q-151 0 -278.5 68.5t-204 193.5t-76.5 280q0 118 45 220.5t121 172.5t178 110t215 40q114 0 216 -40t178 -110.5t120.5 -172.5t44.5 -220q0 -155 -76 -280t-203.5 -193.5t-279.5 -68.5zM653 168q152 0 248 99.5t96 256.5
q0 156 -96.5 257.5t-247.5 101.5t-247.5 -101.5t-96.5 -257.5q0 -157 96 -256.5t248 -99.5z" />
    <glyph glyph-name="ocircumflex" unicode="&#xf4;" horiz-adv-x="1306" 
d="M348 1184l293 418h23l292 -418h-170l-133 170l-135 -170h-170zM653 -18q-151 0 -278.5 68.5t-204 193.5t-76.5 280q0 118 45 220.5t121 172.5t178 110t215 40q114 0 216 -40t178 -110.5t120.5 -172.5t44.5 -220q0 -155 -76 -280t-203.5 -193.5t-279.5 -68.5zM653 168
q152 0 248 99.5t96 256.5q0 156 -96.5 257.5t-247.5 101.5t-247.5 -101.5t-96.5 -257.5q0 -157 96 -256.5t248 -99.5z" />
    <glyph glyph-name="otilde" unicode="&#xf5;" horiz-adv-x="1306" 
d="M475 1180l-145 14q6 123 61 189.5t139 66.5q69 0 136 -53q8 -6 21.5 -16.5t19 -14.5t15 -10.5t15 -8.5t13.5 -4t16 -2q56 0 65 107l146 -14q-6 -123 -60 -189.5t-141 -66.5q-66 0 -135 55q-8 6 -25 19t-22 17t-15.5 10t-18 7.5t-17.5 1.5q-59 0 -68 -108zM653 -18
q-151 0 -278.5 68.5t-204 193.5t-76.5 280q0 118 45 220.5t121 172.5t178 110t215 40q114 0 216 -40t178 -110.5t120.5 -172.5t44.5 -220q0 -155 -76 -280t-203.5 -193.5t-279.5 -68.5zM653 168q152 0 248 99.5t96 256.5q0 156 -96.5 257.5t-247.5 101.5t-247.5 -101.5
t-96.5 -257.5q0 -157 96 -256.5t248 -99.5z" />
    <glyph glyph-name="odieresis" unicode="&#xf6;" horiz-adv-x="1306" 
d="M852 1210q-48 0 -85.5 37t-37.5 88q0 50 37.5 86.5t85.5 36.5q50 0 87.5 -36.5t37.5 -86.5q0 -52 -37.5 -88.5t-87.5 -36.5zM455 1210q-50 0 -87.5 36.5t-37.5 88.5q0 50 37.5 86.5t87.5 36.5t86.5 -36t36.5 -87q0 -52 -36.5 -88.5t-86.5 -36.5zM653 -18
q-151 0 -278.5 68.5t-204 193.5t-76.5 280q0 118 45 220.5t121 172.5t178 110t215 40q114 0 216 -40t178 -110.5t120.5 -172.5t44.5 -220q0 -155 -76 -280t-203.5 -193.5t-279.5 -68.5zM653 168q152 0 248 99.5t96 256.5q0 156 -96.5 257.5t-247.5 101.5t-247.5 -101.5
t-96.5 -257.5q0 -157 96 -256.5t248 -99.5z" />
    <glyph glyph-name="divide" unicode="&#xf7;" 
d="M227 371q-58 0 -99.5 40.5t-41.5 102.5q0 60 41.5 99.5t99.5 39.5q57 0 98.5 -39.5t41.5 -99.5q0 -62 -41.5 -102.5t-98.5 -40.5z" />
    <glyph glyph-name="oslash" unicode="&#xf8;" horiz-adv-x="1302" 
d="M1102 852q108 -137 108 -328q0 -155 -76 -280t-203.5 -193.5t-279.5 -68.5q-200 0 -346 112l-121 -112l-100 104l117 111q-109 141 -109 327q0 118 45 220.5t121 172.5t178 110t215 40q197 0 348 -113l119 113l101 -104zM346 334l514 489q-89 66 -209 66
q-154 0 -252 -103t-98 -262q0 -105 45 -190zM956 713l-516 -488q88 -63 211 -63q155 0 252.5 101t97.5 261q0 107 -45 189z" />
    <glyph glyph-name="ugrave" unicode="&#xf9;" horiz-adv-x="1099" 
d="M475 1186l-201 389h238l123 -389h-160zM553 -18q-194 0 -310 106.5t-116 304.5v658h209v-652q0 -231 215 -231q213 0 213 231v652h209v-658q0 -197 -115.5 -304t-304.5 -107z" />
    <glyph glyph-name="uacute" unicode="&#xfa;" horiz-adv-x="1099" 
d="M477 1186l123 389h238l-201 -389h-160zM553 -18q-194 0 -310 106.5t-116 304.5v658h209v-652q0 -231 215 -231q213 0 213 231v652h209v-658q0 -197 -115.5 -304t-304.5 -107z" />
    <glyph glyph-name="ucircumflex" unicode="&#xfb;" horiz-adv-x="1099" 
d="M246 1184l293 418h22l293 -418h-170l-133 170l-135 -170h-170zM553 -18q-194 0 -310 106.5t-116 304.5v658h209v-652q0 -231 215 -231q213 0 213 231v652h209v-658q0 -197 -115.5 -304t-304.5 -107z" />
    <glyph glyph-name="udieresis" unicode="&#xfc;" horiz-adv-x="1099" 
d="M750 1210q-48 0 -85.5 37t-37.5 88q0 50 37.5 86.5t85.5 36.5q50 0 87 -36t37 -87q0 -52 -37 -88.5t-87 -36.5zM352 1210q-50 0 -87.5 36.5t-37.5 88.5q0 50 37.5 86.5t87.5 36.5t86.5 -36t36.5 -87q0 -52 -36.5 -88.5t-86.5 -36.5zM553 -18q-194 0 -310 106.5
t-116 304.5v658h209v-652q0 -231 215 -231q213 0 213 231v652h209v-658q0 -197 -115.5 -304t-304.5 -107z" />
    <glyph glyph-name="yacute" unicode="&#xfd;" horiz-adv-x="1083" 
d="M481 1186l123 389h238l-201 -389h-160zM442 0v336l-393 715h240l180 -338q22 -40 42.5 -93.5t30.5 -87.5l9 -34q35 129 80 215l178 338h225l-381 -711v-340h-211z" />
    <glyph glyph-name="thorn" unicode="&#xfe;" horiz-adv-x="997" 
d="M135 0v1051h209v-115h105q217 0 338.5 -107.5t121.5 -298.5q0 -188 -122 -295.5t-338 -107.5h-105v-127h-209zM344 307h98q252 0 252 223q0 226 -252 226h-98v-449z" />
    <glyph glyph-name="ydieresis" unicode="&#xff;" horiz-adv-x="1083" 
d="M745 1210q-48 0 -85 36.5t-37 88.5q0 50 37 86.5t85 36.5q50 0 87.5 -36.5t37.5 -86.5q0 -52 -37.5 -88.5t-87.5 -36.5zM348 1210q-50 0 -87.5 36.5t-37.5 88.5q0 50 37.5 86.5t87.5 36.5t86.5 -36t36.5 -87q0 -52 -36.5 -88.5t-86.5 -36.5zM442 0v336l-393 715h240
l180 -338q22 -40 42.5 -93.5t30.5 -87.5l9 -34q35 129 80 215l178 338h225l-381 -711v-340h-211z" />
    <glyph glyph-name="dotlessi" unicode="&#x131;" horiz-adv-x="489" 
d="M139 0v1051h211v-1051h-211z" />
    <glyph glyph-name="Lslash" unicode="&#x141;" horiz-adv-x="1128" 
d="M182 0v385l-153 -55v190l153 55v818h215v-740l389 144v-191l-389 -143v-273h645v-190h-860z" />
    <glyph glyph-name="lslash" unicode="&#x142;" horiz-adv-x="919" 
d="M358 362v-180h476v-182h-684v274l-115 -47v176l115 48v600h208v-510l277 114v-176z" />
    <glyph glyph-name="OE" unicode="&#x152;" horiz-adv-x="2031" 
d="M836 0q-163 0 -300 51t-232.5 142t-148.5 220.5t-53 282.5q0 310 202 503.5t532 193.5h1046v-191h-668v-540h592v-187h-592v-285h697v-190h-1075zM848 190h149v1012h-149q-257 0 -390.5 -137.5t-133.5 -368.5t133.5 -368.5t390.5 -137.5z" />
    <glyph glyph-name="oe" unicode="&#x153;" horiz-adv-x="1585" 
d="M647 0q-246 0 -399.5 143.5t-153.5 380.5t153.5 382t399.5 145h819v-183h-495v-321h426v-176h-426v-189h516v-182h-840zM659 182h103v686h-103q-176 0 -264 -91.5t-88 -252.5q0 -159 88 -250.5t264 -91.5z" />
    <glyph glyph-name="Scaron" unicode="&#x160;" horiz-adv-x="1091" 
d="M508 1509l-293 418h170l133 -170l135 170h170l-293 -418h-22zM545 -18q-187 0 -312.5 79.5t-189.5 208.5l178 99q57 -94 129.5 -144.5t190.5 -50.5q106 0 173.5 52.5t67.5 138.5q0 85 -53.5 135t-179.5 106l-92 41q-166 73 -246 164.5t-80 243.5q0 156 109 255t282 99
q138 0 234 -53.5t159 -165.5l-170 -105q-41 71 -92 103.5t-131 32.5q-82 0 -131 -45t-49 -117q0 -75 45 -120t156 -93l90 -41q190 -83 277 -180.5t87 -257.5q0 -179 -125.5 -282t-326.5 -103z" />
    <glyph glyph-name="scaron" unicode="&#x161;" horiz-adv-x="905" 
d="M422 1157l-293 418h170l133 -170l135 170h170l-293 -418h-22zM455 -18q-146 0 -254 66t-160 171l170 92q79 -151 242 -151q74 0 121 32.5t47 86.5q0 53 -37 86t-131 73l-64 29q-64 27 -109.5 54.5t-82.5 64.5t-55.5 86.5t-18.5 111.5q0 127 89.5 205t229.5 78
q106 0 184.5 -39t137.5 -125l-152 -104q-68 96 -166 96q-56 0 -89 -28.5t-33 -78.5q0 -49 30 -77.5t99 -59.5l65 -28q75 -31 127 -60.5t95.5 -70t65 -93t21.5 -118.5q0 -139 -100.5 -219t-271.5 -80z" />
    <glyph glyph-name="Ydieresis" unicode="&#x178;" horiz-adv-x="1368" 
d="M883 1563q-48 0 -85.5 37t-37.5 88q0 50 37.5 86t85.5 36q50 0 87.5 -36t37.5 -86q0 -52 -37.5 -88.5t-87.5 -36.5zM485 1563q-50 0 -87.5 36.5t-37.5 88.5q0 50 37.5 86t87.5 36t86.5 -35.5t36.5 -86.5q0 -52 -36.5 -88.5t-86.5 -36.5zM588 0v440l-529 953h240l315 -574
q19 -35 40 -85t32 -83l12 -33q43 123 84 201l305 574h224l-506 -940v-453h-217z" />
    <glyph glyph-name="Zcaron" unicode="&#x17d;" horiz-adv-x="1224" 
d="M623 1509l-293 418h170l133 -170l135 170h170l-293 -418h-22zM68 0v23l704 1179h-592v191h930v-23l-700 -1180h686v-190h-1028z" />
    <glyph glyph-name="zcaron" unicode="&#x17e;" horiz-adv-x="983" 
d="M498 1157l-293 418h170l133 -170l135 170h170l-293 -418h-22zM76 0v20l499 850h-419v181h745v-21l-502 -850h480v-180h-803z" />
    <glyph glyph-name="florin" unicode="&#x192;" horiz-adv-x="794" 
d="M410 424l-70 -617h-203l70 617h-133v147h149l21 189q36 307 297 307q155 0 237 -117l-131 -114q-20 29 -41 42t-55 13q-88 0 -102 -119l-23 -201h190v-147h-206z" />
    <glyph glyph-name="circumflex" unicode="&#x2c6;" horiz-adv-x="1024" 
d="M207 1020l293 418h22l293 -418h-170l-133 170l-135 -170h-170z" />
    <glyph glyph-name="caron" unicode="&#x2c7;" horiz-adv-x="1024" 
d="M502 993l-293 418h170l133 -170l135 170h170l-293 -418h-22z" />
    <glyph glyph-name="breve" unicode="&#x2d8;" horiz-adv-x="1024" 
d="M512 1012q-128 0 -206.5 72.5t-92.5 189.5l162 24q25 -131 137 -131t137 131l162 -24q-14 -117 -92.5 -189.5t-206.5 -72.5z" />
    <glyph glyph-name="dotaccent" unicode="&#x2d9;" horiz-adv-x="1024" 
d="M512 1047q-49 0 -87 36.5t-38 87.5t38.5 88t86.5 37q50 0 87.5 -36.5t37.5 -88.5t-37.5 -88t-87.5 -36z" />
    <glyph glyph-name="ring" unicode="&#x2da;" horiz-adv-x="1024" 
d="M512 981q-100 0 -170 65.5t-70 157.5q0 94 69.5 160t170.5 66t170.5 -66t69.5 -160q0 -92 -70 -157.5t-170 -65.5zM512 1102q43 0 70.5 27.5t27.5 74.5q0 49 -27 77t-71 28t-71 -28t-27 -77q0 -47 27.5 -74.5t70.5 -27.5z" />
    <glyph glyph-name="ogonek" unicode="&#x2db;" horiz-adv-x="1024" 
d="M492 -483q-85 0 -144 50.5t-59 143.5q0 95 82 199l69 90h131l-77 -129q-28 -47 -37 -63t-17 -41t-8 -52q0 -36 20 -55.5t52 -19.5q58 0 96 63l109 -63q-65 -123 -217 -123z" />
    <glyph glyph-name="tilde" unicode="&#x2dc;" horiz-adv-x="1024" 
d="M334 1016l-146 14q6 122 61 189t140 67q68 0 135 -53q6 -4 17 -12.5t15 -12t12.5 -9t12.5 -8t10.5 -6t11 -4.5t10.5 -2t12 -1q56 0 65 106l146 -14q-6 -123 -60 -189.5t-141 -66.5q-66 0 -135 55q-8 6 -21.5 16.5t-19 14.5t-14.5 10t-14.5 8t-13.5 4t-16 2
q-58 0 -67 -108z" />
    <glyph glyph-name="hungarumlaut" unicode="&#x2dd;" horiz-adv-x="1024" 
d="M596 1022l121 389h219l-182 -389h-158zM264 1022l123 389h219l-182 -389h-160z" />
    <glyph glyph-name="Delta" unicode="&#x394;" 
d="M227 371q-58 0 -99.5 40.5t-41.5 102.5q0 60 41.5 99.5t99.5 39.5q57 0 98.5 -39.5t41.5 -99.5q0 -62 -41.5 -102.5t-98.5 -40.5z" />
    <glyph glyph-name="Delta" unicode="&#x2206;" 
d="M227 371q-58 0 -99.5 40.5t-41.5 102.5q0 60 41.5 99.5t99.5 39.5q57 0 98.5 -39.5t41.5 -99.5q0 -62 -41.5 -102.5t-98.5 -40.5z" />
    <glyph glyph-name="Omega" unicode="&#x3a9;" 
d="M227 371q-58 0 -99.5 40.5t-41.5 102.5q0 60 41.5 99.5t99.5 39.5q57 0 98.5 -39.5t41.5 -99.5q0 -62 -41.5 -102.5t-98.5 -40.5z" />
    <glyph glyph-name="Omega" unicode="&#x2126;" 
d="M227 371q-58 0 -99.5 40.5t-41.5 102.5q0 60 41.5 99.5t99.5 39.5q57 0 98.5 -39.5t41.5 -99.5q0 -62 -41.5 -102.5t-98.5 -40.5z" />
    <glyph glyph-name="pi" unicode="&#x3c0;" 
d="M227 371q-58 0 -99.5 40.5t-41.5 102.5q0 60 41.5 99.5t99.5 39.5q57 0 98.5 -39.5t41.5 -99.5q0 -62 -41.5 -102.5t-98.5 -40.5z" />
    <glyph glyph-name="endash" unicode="&#x2013;" horiz-adv-x="819" 
d="M68 338v184h684v-184h-684z" />
    <glyph glyph-name="emdash" unicode="&#x2014;" horiz-adv-x="1310" 
d="M68 338v184h1175v-184h-1175z" />
    <glyph glyph-name="quoteleft" unicode="&#x2018;" 
d="M225 911q-55 0 -95 38.5t-40 94.5q0 55 43 130l117 219h104l-73 -224q34 -13 56.5 -46t22.5 -76q0 -58 -40 -97t-95 -39z" />
    <glyph glyph-name="quoteright" unicode="&#x2019;" 
d="M94 926l74 223q-32 13 -55 47t-23 76q0 57 39.5 96t93.5 39q56 0 96.5 -38.5t40.5 -94.5q0 -54 -43 -129l-118 -219h-105z" />
    <glyph glyph-name="quotesinglbase" unicode="&#x201a;" 
d="M94 -209l74 223q-32 13 -55 47t-23 76q0 56 40 95.5t93 39.5q56 0 96.5 -39.5t40.5 -95.5q0 -55 -43 -127l-118 -219h-105z" />
    <glyph glyph-name="quotedblleft" unicode="&#x201c;" horiz-adv-x="831" 
d="M608 911q-55 0 -96 38.5t-41 94.5q0 52 45 130l117 219h104l-73 -224q34 -13 56.5 -46t22.5 -76q0 -58 -40 -97t-95 -39zM225 911q-55 0 -95 38.5t-40 94.5q0 55 43 130l117 219h104l-73 -224q34 -13 56.5 -46t22.5 -76q0 -58 -40 -97t-95 -39z" />
    <glyph glyph-name="quotedblright" unicode="&#x201d;" horiz-adv-x="831" 
d="M477 926l74 223q-33 13 -56.5 47t-23.5 76q0 57 40.5 96t94.5 39q56 0 96.5 -38.5t40.5 -94.5q0 -48 -43 -129l-118 -219h-105zM94 926l74 223q-32 13 -55 47t-23 76q0 57 39.5 96t93.5 39q56 0 96.5 -38.5t40.5 -94.5q0 -54 -43 -129l-118 -219h-105z" />
    <glyph glyph-name="quotedblbase" unicode="&#x201e;" horiz-adv-x="831" 
d="M477 -209l74 223q-33 13 -56.5 47t-23.5 76q0 56 40.5 95.5t94.5 39.5q56 0 96.5 -39.5t40.5 -95.5q0 -50 -43 -127l-118 -219h-105zM94 -209l74 223q-32 13 -55 47t-23 76q0 56 40 95.5t93 39.5q56 0 96.5 -39.5t40.5 -95.5q0 -55 -43 -127l-118 -219h-105z" />
    <glyph glyph-name="dagger" unicode="&#x2020;" horiz-adv-x="714" 
d="M262 535v479h-186v172h186v207h191v-207h186v-172h-186v-479h-191z" />
    <glyph glyph-name="daggerdbl" unicode="&#x2021;" horiz-adv-x="714" 
d="M262 535v206h-186v156h186v133h-186v156h186v207h191v-207h186v-156h-186v-133h186v-156h-186v-206h-191z" />
    <glyph glyph-name="bullet" unicode="&#x2022;" horiz-adv-x="569" 
d="M285 346q-84 0 -145.5 60t-61.5 147q0 88 61 147.5t146 59.5q84 0 145.5 -59.5t61.5 -147.5q0 -86 -62 -146.5t-145 -60.5z" />
    <glyph glyph-name="ellipsis" unicode="&#x2026;" horiz-adv-x="1380" 
d="M1153 -12q-58 0 -100.5 40.5t-42.5 100.5t42.5 99.5t100.5 39.5q57 0 98 -39.5t41 -99.5t-41 -100.5t-98 -40.5zM690 -12q-58 0 -99.5 40.5t-41.5 100.5t41.5 99.5t99.5 39.5t99.5 -39.5t41.5 -99.5t-41.5 -100.5t-99.5 -40.5zM229 -12q-58 0 -99.5 40.5t-41.5 100.5
t41.5 99.5t99.5 39.5q57 0 98.5 -39.5t41.5 -99.5t-41.5 -100.5t-98.5 -40.5z" />
    <glyph glyph-name="perthousand" unicode="&#x2030;" horiz-adv-x="2387" 
d="M375 446q-131 0 -225.5 88.5t-94.5 221.5t94.5 222t225.5 89t225 -89t94 -222t-94 -221.5t-225 -88.5zM395 0l660 1051h207l-660 -1051h-207zM2013 -18q-133 0 -226 88.5t-93 222.5q0 133 93.5 222t225.5 89q131 0 225.5 -89t94.5 -222q0 -134 -94 -222.5t-226 -88.5z
M1282 -18q-132 0 -225.5 88.5t-93.5 222.5q0 133 94 222t225 89t225.5 -89t94.5 -222q0 -134 -94 -222.5t-226 -88.5zM375 604q60 0 102.5 42.5t42.5 109.5q0 68 -42 110.5t-103 42.5q-59 0 -102.5 -42.5t-43.5 -110.5q0 -67 43.5 -109.5t102.5 -42.5zM2013 141
q59 0 102.5 42.5t43.5 109.5t-43.5 109t-102.5 42t-101 -42t-42 -109t42 -109.5t101 -42.5zM1282 141q60 0 102.5 42.5t42.5 109.5t-42.5 109t-102.5 42q-59 0 -101 -42t-42 -109t42 -109.5t101 -42.5z" />
    <glyph glyph-name="guilsinglleft" unicode="&#x2039;" horiz-adv-x="542" 
d="M264 72l-192 334v16l192 330h207l-199 -338l199 -342h-207z" />
    <glyph glyph-name="guilsinglright" unicode="&#x203a;" horiz-adv-x="542" 
d="M72 72l198 338l-198 342h204l195 -334v-17l-195 -329h-204z" />
    <glyph glyph-name="fraction" unicode="&#x2044;" horiz-adv-x="790" 
d="M-37 0l660 1051h204l-659 -1051h-205z" />
    <glyph glyph-name="fraction" unicode="&#x2215;" horiz-adv-x="790" 
d="M-37 0l660 1051h204l-659 -1051h-205z" />
    <glyph glyph-name="Euro" unicode="&#x20ac;" horiz-adv-x="1193" 
d="M197 567h-123v148h149q52 160 179.5 256t297.5 96q270 0 406 -209l-164 -104q-80 127 -244 127q-91 0 -156 -43.5t-100 -122.5h351v-148h-383q-2 -14 -2 -43q0 -12 1 -32.5t1 -30.5h383v-148h-338q76 -149 247 -149q105 0 166 41.5t103 113.5l170 -94
q-30 -55 -67.5 -96.5t-89.5 -76t-124.5 -52.5t-161.5 -18q-166 0 -290 89.5t-179 241.5h-155v148h123q-2 20 -2 63q0 29 2 43z" />
    <glyph glyph-name="trademark" unicode="&#x2122;" horiz-adv-x="1470" 
d="M705 780v621h18l297 -316l299 316h18v-621h-147v320l-160 -189h-18l-162 189v-320h-145zM260 780v490h-174v123h498v-123h-174v-490h-150z" />
    <glyph glyph-name="partialdiff" unicode="&#x2202;" 
d="M227 371q-58 0 -99.5 40.5t-41.5 102.5q0 60 41.5 99.5t99.5 39.5q57 0 98.5 -39.5t41.5 -99.5q0 -62 -41.5 -102.5t-98.5 -40.5z" />
    <glyph glyph-name="product" unicode="&#x220f;" 
d="M227 371q-58 0 -99.5 40.5t-41.5 102.5q0 60 41.5 99.5t99.5 39.5q57 0 98.5 -39.5t41.5 -99.5q0 -62 -41.5 -102.5t-98.5 -40.5z" />
    <glyph glyph-name="summation" unicode="&#x2211;" horiz-adv-x="1306" 
d="M762 -8q90 -76 176 -76q79 0 145 70l127 -127q-98 -125 -270 -125q-108 0 -194.5 50.5t-184.5 145.5q-57 53 -97.5 76t-94.5 23q-95 0 -170 -105l-131 123q66 90 159 121q-133 149 -133 356q0 118 45 220.5t121 172.5t178 110t215 40q114 0 216 -40t178 -110.5
t120.5 -172.5t44.5 -220q0 -205 -127 -350.5t-323 -181.5zM653 168q152 0 248 99.5t96 256.5q0 156 -96.5 257.5t-247.5 101.5t-247.5 -101.5t-96.5 -257.5q0 -157 96 -256.5t248 -99.5z" />
    <glyph glyph-name="minus" unicode="&#x2212;" 
d="M227 371q-58 0 -99.5 40.5t-41.5 102.5q0 60 41.5 99.5t99.5 39.5q57 0 98.5 -39.5t41.5 -99.5q0 -62 -41.5 -102.5t-98.5 -40.5z" />
    <glyph glyph-name="radical" unicode="&#x221a;" 
d="M227 371q-58 0 -99.5 40.5t-41.5 102.5q0 60 41.5 99.5t99.5 39.5q57 0 98.5 -39.5t41.5 -99.5q0 -62 -41.5 -102.5t-98.5 -40.5z" />
    <glyph glyph-name="integral" unicode="&#x222b;" 
d="M227 371q-58 0 -99.5 40.5t-41.5 102.5q0 60 41.5 99.5t99.5 39.5q57 0 98.5 -39.5t41.5 -99.5q0 -62 -41.5 -102.5t-98.5 -40.5z" />
    <glyph glyph-name="approxequal" unicode="&#x2248;" 
d="M227 371q-58 0 -99.5 40.5t-41.5 102.5q0 60 41.5 99.5t99.5 39.5q57 0 98.5 -39.5t41.5 -99.5q0 -62 -41.5 -102.5t-98.5 -40.5z" />
    <glyph glyph-name="lessequal" unicode="&#x2264;" 
d="M227 371q-58 0 -99.5 40.5t-41.5 102.5q0 60 41.5 99.5t99.5 39.5q57 0 98.5 -39.5t41.5 -99.5q0 -62 -41.5 -102.5t-98.5 -40.5z" />
    <glyph glyph-name="greaterequal" unicode="&#x2265;" 
d="M227 371q-58 0 -99.5 40.5t-41.5 102.5q0 60 41.5 99.5t99.5 39.5q57 0 98.5 -39.5t41.5 -99.5q0 -62 -41.5 -102.5t-98.5 -40.5z" />
    <glyph glyph-name="lozenge" unicode="&#x25ca;" 
d="M227 371q-58 0 -99.5 40.5t-41.5 102.5q0 60 41.5 99.5t99.5 39.5q57 0 98.5 -39.5t41.5 -99.5q0 -62 -41.5 -102.5t-98.5 -40.5z" />
    <glyph glyph-name="plusminus" horiz-adv-x="2742" 
d="M1974 0v1051h209v-869h477v-182h-686zM1055 0v1051h692v-185h-483v-344h436v-184h-436v-338h-209zM135 0v1051h692v-185h-483v-344h436v-184h-436v-338h-209z" />
    <glyph glyph-name="apple" horiz-adv-x="456" 
d="M229 371q-58 0 -99.5 40.5t-41.5 102.5q0 60 41.5 99.5t99.5 39.5q57 0 98.5 -39.5t41.5 -99.5q0 -62 -41.5 -102.5t-98.5 -40.5z" />
    <glyph glyph-name="infinity" horiz-adv-x="2328" 
d="M1978 0v1051h211v-1051h-211zM1055 0v1051h692v-185h-483v-344h436v-184h-436v-338h-209zM135 0v1051h692v-185h-483v-344h436v-184h-436v-338h-209z" />
    <glyph glyph-name="notequal" horiz-adv-x="1839" 
d="M1055 0v1051h692v-185h-483v-344h436v-184h-436v-338h-209zM135 0v1051h692v-185h-483v-344h436v-184h-436v-338h-209z" />
    </font>
</defs>
</svg>
