<?xml version="1.0" standalone="no"?>
<!DOCTYPE svg PUBLIC "-//W3C//DTD SVG 1.1//EN" "http://www.w3.org/Graphics/SVG/1.1/DTD/svg11.dtd" >
<svg xmlns="http://www.w3.org/2000/svg" xmlns:xlink="http://www.w3.org/1999/xlink" version="1.1">
<metadata>
Created by FontForge 20170731 at Mon Feb  8 17:12:40 2021
 By Aleksey,,,
(C)2002 House Industries/Brand Design Co. Inc.
</metadata>
<defs>
<font id="NeutraText-Book" horiz-adv-x="409" >
  <font-face 
    font-family="Neutra Text"
    font-weight="500"
    font-stretch="normal"
    units-per-em="2048"
    panose-1="2 0 0 0 0 0 0 0 0 0"
    ascent="1638"
    descent="-410"
    x-height="848"
    cap-height="1393"
    bbox="-117 -475 2218 1937"
    underline-thickness="40"
    underline-position="-312"
    unicode-range="U+000D-FB02"
  />
<missing-glyph horiz-adv-x="1024" 
 />
    <glyph glyph-name="fi" unicode="fi" horiz-adv-x="1030" 
d="M803 1094q-41 0 -72 28.5t-31 71.5t31 72.5t72 29.5t71.5 -29.5t30.5 -72.5t-30.5 -71.5t-71.5 -28.5zM207 0v727h-137v121h137v385q0 137 63.5 204.5t173.5 67.5q132 0 205 -92l-90 -86q-24 25 -46.5 37t-57.5 12q-50 0 -77.5 -32.5t-27.5 -110.5v-385h524v-848h-143
v727h-381v-727h-143z" />
    <glyph glyph-name="fl" unicode="fl" horiz-adv-x="1038" 
d="M207 0v727h-137v121h137v311q0 110 48 190.5t123 118t165 37.5q141 0 236 -86.5t95 -251.5v-1167h-143v1157q0 112 -50 165.5t-138 53.5q-89 0 -141 -54t-52 -165v-309h217v-121h-217v-727h-143z" />
    <glyph glyph-name="ff" unicode="ff" horiz-adv-x="1171" 
d="M207 0v727h-137v121h137v344q0 137 62.5 204.5t170.5 67.5q139 0 209 -90l-92 -90q-41 51 -102 51q-50 0 -77.5 -32.5t-27.5 -110.5v-344h381v385q0 137 63.5 204.5t172.5 67.5q144 0 215 -104l-95 -84q-24 31 -46.5 45t-61.5 14q-105 0 -105 -143v-385h228v-121h-228
v-727h-143v727h-381v-727h-143z" />
    <glyph glyph-name="ffi" unicode="ffi" horiz-adv-x="1554" 
d="M1327 1094q-41 0 -71.5 28.5t-30.5 71.5t30.5 72.5t71.5 29.5t72 -29.5t31 -72.5t-31 -71.5t-72 -28.5zM207 0v727h-137v121h137v344q0 137 62.5 204.5t170.5 67.5q139 0 209 -90l-92 -90q-41 51 -102 51q-50 0 -77.5 -32.5t-27.5 -110.5v-344h381v385q0 137 63.5 204.5
t174.5 67.5q132 0 205 -92l-91 -86q-24 25 -46.5 37t-57.5 12q-50 0 -77.5 -32.5t-27.5 -110.5v-385h525v-848h-144v727h-381v-727h-143v727h-381v-727h-143z" />
    <glyph glyph-name="ffl" unicode="ffl" horiz-adv-x="1562" 
d="M207 0v727h-137v121h137v344q0 137 62.5 204.5t170.5 67.5q139 0 209 -90l-92 -90q-41 51 -102 51q-50 0 -77.5 -32.5t-27.5 -110.5v-344h381v311q0 110 48 190.5t123 118t165 37.5q141 0 236.5 -86.5t95.5 -251.5v-1167h-144v1157q0 112 -50 165.5t-138 53.5
q-89 0 -141 -54t-52 -165v-309h218v-121h-218v-727h-143v727h-381v-727h-143z" />
    <glyph glyph-name=".notdef" horiz-adv-x="1024" 
 />
    <glyph glyph-name=".notdef" horiz-adv-x="1024" 
 />
    <glyph glyph-name=".null" horiz-adv-x="0" 
 />
    <glyph glyph-name="nonmarkingreturn" horiz-adv-x="682" 
 />
    <glyph glyph-name="CR" unicode="&#xd;" horiz-adv-x="485" 
 />
    <glyph glyph-name="space" unicode=" " horiz-adv-x="485" 
 />
    <glyph glyph-name="exclam" unicode="!" horiz-adv-x="499" 
d="M195 389l-25 1004h160l-25 -1004h-110zM250 -14q-44 0 -76.5 31.5t-32.5 76.5q0 46 32.5 78.5t76.5 32.5t76 -32.5t32 -78.5q0 -45 -32.5 -76.5t-75.5 -31.5z" />
    <glyph glyph-name="quotedbl" unicode="&#x22;" horiz-adv-x="579" 
d="M365 963l-19 430h152l-17 -430h-116zM98 963l-16 430h151l-16 -430h-119z" />
    <glyph glyph-name="numbersign" unicode="#" horiz-adv-x="944" 
d="M139 360l58 222h-138v114h164l56 222h-148v114h176l55 223h119l-55 -223h203l57 223h119l-55 -223h135v-114h-164l-55 -222h145v-114h-176l-53 -222h-121l55 222h-203l-53 -222h-121zM342 696h205l55 222h-203z" />
    <glyph glyph-name="dollar" unicode="$" horiz-adv-x="892" 
d="M391 -12q-128 13 -221 77t-133 148l110 59q80 -146 244 -170v383q-153 42 -226 112t-73 183q0 109 82 183.5t217 83.5v217h105v-220q96 -14 167.5 -63.5t108.5 -114.5l-102 -65q-61 106 -174 129v-340l12 -4q164 -48 241.5 -122t77.5 -190q0 -127 -86 -203t-245 -85v-230
h-105v232zM391 934q-78 -8 -121 -45.5t-43 -102.5q0 -64 36.5 -99.5t127.5 -63.5v311zM496 100q96 7 145 50.5t49 113.5q0 74 -42.5 115.5t-151.5 73.5v-353z" />
    <glyph glyph-name="percent" unicode="%" horiz-adv-x="1568" 
d="M365 446q-126 0 -217 86.5t-91 215.5q0 128 91.5 214.5t216.5 86.5q124 0 214.5 -86.5t90.5 -214.5q0 -129 -90.5 -215.5t-214.5 -86.5zM391 0l645 1032h144l-645 -1032h-144zM1206 -16q-125 0 -215 85.5t-90 213.5t90 214.5t215 86.5t215 -86.5t90 -214.5t-90 -213.5
t-215 -85.5zM365 559q75 0 127.5 53t52.5 136q0 84 -52 136t-128 52t-129.5 -52t-53.5 -136q0 -83 53.5 -136t129.5 -53zM1206 94q75 0 127.5 53t52.5 136t-52.5 135.5t-127.5 52.5t-127.5 -52.5t-52.5 -135.5t52.5 -136t127.5 -53z" />
    <glyph glyph-name="ampersand" unicode="&#x26;" horiz-adv-x="1339" 
d="M647 788l307 -372q60 145 60 338h141q0 -261 -104 -455l245 -299h-178l-149 180q-85 -95 -197.5 -145.5t-241.5 -50.5q-202 0 -322 103t-120 275q0 67 18.5 125t48 101t79 85t96.5 72t116 68l-24 31q-113 140 -113 278q0 124 82.5 205.5t216.5 81.5q132 0 213.5 -81
t81.5 -204q0 -101 -66 -182.5t-190 -153.5zM571 881q97 57 147 114t50 129q0 73 -44 117.5t-114 44.5q-72 0 -115.5 -43.5t-43.5 -118.5q0 -99 81 -196zM881 287l-361 436q-68 -37 -114.5 -69.5t-86 -75t-58.5 -93.5t-19 -114q0 -120 76 -188t212 -68q220 0 351 172z" />
    <glyph glyph-name="quotesingle" unicode="'" horiz-adv-x="315" 
d="M98 963l-16 430h151l-16 -430h-119z" />
    <glyph glyph-name="parenleft" unicode="(" horiz-adv-x="589" 
d="M442 -279q-352 360 -352 875q0 514 352 874l90 -73q-135 -157 -213.5 -350.5t-78.5 -450.5t78.5 -450.5t213.5 -350.5z" />
    <glyph glyph-name="parenright" unicode=")" horiz-adv-x="589" 
d="M145 -279l-88 74q135 157 213 350.5t78 450.5t-78 450.5t-213 350.5l88 73q355 -363 355 -874q0 -512 -355 -875z" />
    <glyph glyph-name="asterisk" unicode="*" horiz-adv-x="806" 
d="M338 768l31 256l-201 -150l-64 111l240 96l-240 97l64 110l201 -147l-31 252h129l-31 -252l203 147l63 -110l-241 -97l239 -96l-61 -111l-203 150l31 -256h-129z" />
    <glyph glyph-name="plus" unicode="+" horiz-adv-x="763" 
d="M315 197v256h-235v127h235v256h131v-256h238v-127h-238v-256h-131z" />
    <glyph glyph-name="comma" unicode="," horiz-adv-x="413" 
d="M90 -229l80 227q-33 11 -53.5 37.5t-20.5 62.5q0 45 34 78t77 33q45 0 77.5 -32.5t32.5 -78.5q0 -36 -24 -82l-123 -245h-80z" />
    <glyph glyph-name="hyphen" unicode="-" horiz-adv-x="585" 
d="M94 410v129h395v-129h-395z" />
    <glyph glyph-name="hyphen" unicode="&#xad;" horiz-adv-x="585" 
d="M94 410v129h395v-129h-395z" />
    <glyph glyph-name="period" unicode="." horiz-adv-x="413" 
d="M207 -14q-44 0 -77.5 33t-33.5 79t33.5 78.5t77.5 32.5q45 0 77.5 -32t32.5 -79t-32.5 -79.5t-77.5 -32.5z" />
    <glyph glyph-name="slash" unicode="/" horiz-adv-x="876" 
d="M31 -262l614 1741h143l-614 -1741h-143z" />
    <glyph glyph-name="zero" unicode="0" horiz-adv-x="1251" 
d="M625 -16q-144 0 -267.5 68.5t-198.5 191.5t-75 272q0 151 75 274.5t198.5 191t267.5 67.5q108 0 207 -40t173 -109.5t118 -169.5t44 -214q0 -149 -74.5 -272t-199 -191.5t-268.5 -68.5zM625 113q166 0 279.5 115t113.5 288q0 177 -113 290.5t-280 113.5
q-166 0 -277.5 -113t-111.5 -291q0 -174 112 -288.5t277 -114.5z" />
    <glyph glyph-name="one" unicode="1" horiz-adv-x="581" 
d="M276 0v909h-227v123h373v-1032h-146z" />
    <glyph glyph-name="two" unicode="2" horiz-adv-x="964" 
d="M59 0v18l416 379q114 104 165.5 177t51.5 153q0 93 -54.5 142t-145.5 49q-186 0 -256 -209l-132 36q37 141 140.5 222.5t244.5 81.5q161 0 256 -87t95 -229q0 -99 -63.5 -193.5t-186.5 -207.5l-156 -142q-16 -16 -42.5 -33.5t-45.5 -27.5l-18 -10q75 6 114 6h424v-125
h-807z" />
    <glyph glyph-name="three" unicode="3" horiz-adv-x="1011" 
d="M487 -211q-155 0 -270 71t-172 195l127 60q92 -197 315 -197q124 0 207.5 79t83.5 216q0 136 -81 210.5t-222 74.5q-90 0 -166 -37l-14 20l305 369q13 16 29 33t25 26l10 9q-54 -9 -99 -9h-413v123h745v-14l-295 -354q-12 -14 -27 -28t-25 -21l-9 -7q166 -3 277.5 -112
t111.5 -285q0 -186 -125 -304t-318 -118z" />
    <glyph glyph-name="four" unicode="4" horiz-adv-x="1069" 
d="M846 164h153v-121h-153v-236h-144v236h-659v70l782 940h21v-889zM702 164v465l7 108q-33 -49 -62 -86l-340 -420q-14 -16 -32.5 -34.5t-30.5 -28.5l-11 -10q54 6 99 6h370z" />
    <glyph glyph-name="five" unicode="5" horiz-adv-x="993" 
d="M473 -211q-147 0 -253.5 62t-156.5 161l121 66q90 -160 289 -160q130 0 209.5 80.5t79.5 210.5q0 133 -76 210t-219 77q-95 0 -161.5 -29.5t-125.5 -79.5l-18 6v639h672v-123h-547v-342q84 54 207 54q186 0 302.5 -115.5t116.5 -296.5q0 -183 -122 -301.5t-318 -118.5z
" />
    <glyph glyph-name="six" unicode="6" horiz-adv-x="1040" 
d="M522 -16q-187 0 -311.5 115t-124.5 296q0 84 33.5 163.5t99.5 176.5l348 514h162l-280 -415q-15 -19 -39.5 -46t-41.5 -44l-18 -17q91 74 205 74q172 0 285.5 -113.5t113.5 -290.5q0 -179 -122.5 -296t-309.5 -117zM520 111q127 0 208 81t81 205q0 129 -78 208t-211 79
q-129 0 -209 -83.5t-80 -203.5q0 -125 79 -205.5t210 -80.5z" />
    <glyph glyph-name="seven" unicode="7" horiz-adv-x="923" 
d="M156 -193l516 1102h-604v123h798v-18l-563 -1207h-147z" />
    <glyph glyph-name="eight" unicode="8" horiz-adv-x="1067" 
d="M532 -16q-199 0 -324.5 108.5t-125.5 274.5q0 127 75 215.5t201 124.5q-82 32 -130 96.5t-48 154.5q0 129 100 218.5t252 89.5q154 0 254.5 -89t100.5 -219q0 -90 -48.5 -154.5t-129.5 -96.5q126 -36 201 -124.5t75 -215.5q0 -166 -126 -274.5t-327 -108.5zM532 762
q95 0 153 52t58 138q0 85 -59.5 139t-151.5 54q-93 0 -151.5 -54t-58.5 -139q0 -86 57.5 -138t152.5 -52zM532 113q136 0 219 72.5t83 189.5q0 119 -83.5 193.5t-218.5 74.5q-136 0 -218.5 -74.5t-82.5 -193.5t82.5 -190.5t218.5 -71.5z" />
    <glyph glyph-name="nine" unicode="9" horiz-adv-x="1052" 
d="M350 -193l262 392q15 22 38.5 47t39.5 39l17 14q-41 -35 -97 -55.5t-112 -20.5q-178 0 -295 114t-117 294q0 178 126 298t314 120q189 0 315 -116t126 -300q0 -86 -33.5 -163.5t-102.5 -182.5l-319 -480h-162zM524 338q131 0 213 85.5t82 207.5q0 125 -81.5 207
t-211.5 82t-212.5 -81.5t-82.5 -207.5q0 -130 80.5 -211.5t212.5 -81.5z" />
    <glyph glyph-name="colon" unicode=":" horiz-adv-x="434" 
d="M217 444q-44 0 -77.5 33.5t-33.5 79.5t33.5 78.5t77.5 32.5q45 0 78 -32t33 -79t-33 -80t-78 -33zM217 -14q-44 0 -77.5 33t-33.5 79t33.5 78.5t77.5 32.5q45 0 78 -32t33 -79t-33 -79.5t-78 -32.5z" />
    <glyph glyph-name="semicolon" unicode=";" horiz-adv-x="434" 
d="M217 444q-44 0 -77.5 33.5t-33.5 79.5t33.5 78.5t77.5 32.5q45 0 78 -32t33 -79t-33 -80t-78 -33zM100 -229l80 227q-33 11 -53.5 37.5t-20.5 62.5q0 45 34 78t77 33q45 0 78 -33t33 -78q0 -34 -25 -82l-123 -245h-80z" />
    <glyph glyph-name="semicolon" unicode="&#x37e;" horiz-adv-x="434" 
d="M217 444q-44 0 -77.5 33.5t-33.5 79.5t33.5 78.5t77.5 32.5q45 0 78 -32t33 -79t-33 -80t-78 -33zM100 -229l80 227q-33 11 -53.5 37.5t-20.5 62.5q0 45 34 78t77 33q45 0 78 -33t33 -78q0 -34 -25 -82l-123 -245h-80z" />
    <glyph glyph-name="less" unicode="&#x3c;" horiz-adv-x="729" 
d="M629 193l-555 296v21l555 293v-131l-344 -172l344 -174v-133z" />
    <glyph glyph-name="equal" unicode="=" horiz-adv-x="759" 
d="M86 578v124h588v-124h-588zM86 311v127h588v-127h-588z" />
    <glyph glyph-name="greater" unicode="&#x3e;" horiz-adv-x="729" 
d="M100 193v131l344 172l-344 174v133l555 -297v-21z" />
    <glyph glyph-name="question" unicode="?" horiz-adv-x="960" 
d="M356 383v360h68q132 0 209.5 78.5t77.5 196.5q0 120 -70.5 191t-185.5 71q-102 0 -168.5 -43.5t-112.5 -136.5l-119 61q51 120 155 184t245 64q181 0 292 -108t111 -283q0 -162 -101.5 -268.5t-264.5 -118.5v-248h-136zM422 -14q-44 0 -76.5 31.5t-32.5 76.5
q0 46 32.5 78.5t76.5 32.5t76 -32.5t32 -78.5q0 -45 -32.5 -76.5t-75.5 -31.5z" />
    <glyph glyph-name="at" unicode="@" horiz-adv-x="1814" 
d="M918 -422q-136 0 -260.5 37t-225.5 108t-175.5 168.5t-115.5 225t-41 270.5q0 173 65.5 325t176 258.5t260 168t313.5 61.5q228 0 411 -99t285.5 -271.5t102.5 -385.5q0 -227 -86.5 -341.5t-230.5 -114.5q-98 0 -159.5 48.5t-78.5 143.5q-87 -196 -295 -196
q-153 0 -255.5 111t-102.5 280q0 170 102.5 283.5t253.5 113.5q96 0 165 -47.5t108 -128.5l-5 156h142v-473q0 -91 29.5 -136t99.5 -45q85 0 135.5 84.5t50.5 259.5q0 138 -47 256.5t-133 204t-213 134t-279 48.5q-197 0 -353 -92.5t-241 -251.5t-85 -354q0 -198 83 -356
t239 -249t360 -91q183 0 335 82l54 -103q-168 -92 -389 -92zM893 102q102 0 172 79.5t70 193.5q0 115 -70 195.5t-172 80.5q-106 0 -174 -79.5t-68 -196.5t68 -195t174 -78z" />
    <glyph glyph-name="A" unicode="A" horiz-adv-x="1343" 
d="M76 0l577 1407h25l590 -1407h-156l-94 233h-705l-92 -233h-145zM365 360h600l-246 619q-12 29 -25.5 70.5t-20.5 68.5l-7 27q-29 -100 -56 -166z" />
    <glyph glyph-name="B" unicode="B" horiz-adv-x="1247" 
d="M190 0v1393h474q186 0 284.5 -96.5t98.5 -245.5q0 -104 -46.5 -176t-134.5 -101q135 -32 211 -129t76 -235q0 -182 -113 -296t-327 -114h-523zM338 823h336q116 0 170.5 59t54.5 160q0 102 -59.5 161t-186.5 59h-315v-439zM338 131h364q153 0 227.5 77t74.5 206
t-78 205.5t-232 76.5h-356v-565z" />
    <glyph glyph-name="C" unicode="C" horiz-adv-x="1486" 
d="M825 -16q-197 0 -359.5 89.5t-258.5 253.5t-96 369t96 369.5t259 254t359 89.5q372 0 553 -270l-112 -82q-70 103 -182 161t-259 58q-161 0 -289.5 -75.5t-200 -208t-71.5 -296.5q0 -123 42 -230.5t116 -184t178.5 -120.5t224.5 -44q149 0 265.5 61t193.5 172l115 -80
q-93 -137 -241 -211.5t-333 -74.5z" />
    <glyph glyph-name="D" unicode="D" horiz-adv-x="1392" 
d="M190 0v1393h338q347 0 550.5 -189.5t203.5 -507.5t-203 -507t-551 -189h-338zM338 133h180q151 0 268 41t191 116t111.5 177.5t37.5 228.5q0 258 -154.5 411t-453.5 153h-180v-1127z" />
    <glyph glyph-name="E" unicode="E" horiz-adv-x="1187" 
d="M190 0v1393h848v-131h-700v-654h625v-129h-625v-348h729v-131h-877z" />
    <glyph glyph-name="F" unicode="F" horiz-adv-x="1138" 
d="M190 0v1393h838v-131h-690v-654h627v-135h-627v-473h-148z" />
    <glyph glyph-name="G" unicode="G" horiz-adv-x="1521" 
d="M840 -16q-154 0 -289 52.5t-232 145.5t-152.5 226t-55.5 288q0 206 94 369.5t257.5 253.5t364.5 90q318 0 486 -180l-101 -101q-142 148 -385 148q-161 0 -290 -75.5t-201 -208t-72 -296.5q0 -250 162 -414.5t414 -164.5q255 0 411 127v286h-413v132h553v-486
q-85 -83 -226.5 -137.5t-324.5 -54.5z" />
    <glyph glyph-name="H" unicode="H" horiz-adv-x="1421" 
d="M190 0v1393h148v-785h745v785h148v-1393h-148v473h-745v-473h-148z" />
    <glyph glyph-name="I" unicode="I" horiz-adv-x="542" 
d="M197 0v1393h149v-1393h-149z" />
    <glyph glyph-name="J" unicode="J" horiz-adv-x="989" 
d="M428 -16q-247 0 -360 209l120 75q87 -151 234 -151q107 0 168 62.5t61 191.5v1022h150v-1026q0 -186 -102.5 -284.5t-270.5 -98.5z" />
    <glyph glyph-name="K" unicode="K" horiz-adv-x="1243" 
d="M326 543q70 133 100 172l526 678h166l-516 -672l572 -721h-183l-485 612l-168 -202v-410h-148v1393h148v-660q0 -55 -12 -190z" />
    <glyph glyph-name="L" unicode="L" horiz-adv-x="1079" 
d="M190 0v1393h148v-1262h657v-131h-805z" />
    <glyph glyph-name="M" unicode="M" horiz-adv-x="1714" 
d="M190 0v1409h21l647 -809l643 809h23v-1409h-144v920l6 159q-53 -90 -98 -145l-422 -533h-24l-416 533q-20 24 -45 60.5t-40 60.5l-15 24q8 -96 8 -159v-920h-144z" />
    <glyph glyph-name="N" unicode="N" horiz-adv-x="1460" 
d="M1245 -14l-831 983q-17 21 -41.5 53t-40.5 54l-15 22q13 -99 13 -158v-940h-140v1407h25l832 -983q17 -21 41 -53t40 -54l15 -22q-10 99 -10 158v940h137v-1407h-25z" />
    <glyph glyph-name="O" unicode="O" horiz-adv-x="1652" 
d="M825 -16q-197 0 -359.5 89.5t-258.5 253.5t-96 369t96 369.5t259 254t359 89.5q197 0 360.5 -89.5t260 -254t96.5 -369.5t-96.5 -369t-259.5 -253.5t-361 -89.5zM825 117q244 0 404 165t160 414q0 164 -72.5 296.5t-201.5 208t-290 75.5q-242 0 -401.5 -165t-159.5 -415
q0 -123 42.5 -230.5t116.5 -184t178 -120.5t224 -44z" />
    <glyph glyph-name="P" unicode="P" horiz-adv-x="1196" 
d="M190 0v1393h316q279 0 427 -142t148 -383q0 -238 -148.5 -380t-426.5 -142h-168v-346h-148zM338 475h160q224 0 327 105t103 288q0 89 -23.5 159t-73.5 123.5t-134.5 82.5t-198.5 29h-160v-787z" />
    <glyph glyph-name="Q" unicode="Q" horiz-adv-x="1652" 
d="M1333 182l211 -225l-102 -86l-213 229q-180 -116 -404 -116q-197 0 -359.5 89.5t-258.5 253.5t-96 369t96 369.5t259 254t359 89.5q197 0 360.5 -89.5t260 -254t96.5 -369.5q0 -153 -55 -284.5t-154 -229.5zM1135 203l-211 229l100 86l213 -231q152 161 152 409
q0 164 -72.5 296.5t-201.5 208t-290 75.5q-242 0 -401.5 -165t-159.5 -415q0 -123 42.5 -230.5t116.5 -184t178 -120.5t224 -44q176 0 310 86z" />
    <glyph glyph-name="R" unicode="R" horiz-adv-x="1220" 
d="M791 428l303 -428h-174l-269 381q-70 -12 -147 -12h-166v-369h-148v1393h314q278 0 427.5 -140.5t149.5 -373.5q0 -159 -73.5 -276t-216.5 -175zM338 498h158q115 0 200 28.5t135 80.5t73.5 119.5t23.5 152.5q0 176 -104.5 279.5t-327.5 103.5h-158v-764z" />
    <glyph glyph-name="S" unicode="S" horiz-adv-x="1087" 
d="M545 -16q-96 0 -177 23t-139 63.5t-99.5 88.5t-70.5 107l123 66q27 -48 57 -84t72.5 -67.5t100.5 -48.5t129 -17q125 0 206.5 64.5t81.5 172.5q0 101 -61.5 165t-200.5 126l-110 51q-106 48 -169.5 96t-100.5 119t-37 166q0 149 103.5 241.5t262.5 92.5q251 0 377 -209
l-119 -74q-44 72 -105 112t-153 40q-102 0 -161.5 -54.5t-59.5 -144.5q0 -89 49 -141t172 -109l111 -51q181 -80 265.5 -177.5t84.5 -248.5q0 -169 -120.5 -268.5t-311.5 -99.5z" />
    <glyph glyph-name="T" unicode="T" horiz-adv-x="1138" 
d="M496 0v1262h-428v131h1003v-131h-428v-1262h-147z" />
    <glyph glyph-name="U" unicode="U" horiz-adv-x="1355" 
d="M678 -16q-223 0 -361.5 127.5t-138.5 363.5v918h148v-908q0 -182 93 -276t259 -94q165 0 258.5 94t93.5 276v908h148v-918q0 -236 -139.5 -363.5t-360.5 -127.5z" />
    <glyph glyph-name="V" unicode="V" horiz-adv-x="1343" 
d="M664 -14l-588 1407h160l382 -944q13 -31 28 -78.5t24 -78.5l8 -32q30 119 59 189l381 944h150l-580 -1407h-24z" />
    <glyph glyph-name="W" unicode="W" horiz-adv-x="1951" 
d="M532 -14l-460 1407h157l293 -928l39 -152q22 93 45 152l363 942h24l363 -942q10 -26 21.5 -64t17.5 -63l6 -25q21 93 39 152l291 928h149l-459 -1407h-24l-375 991q-10 25 -20.5 59.5t-15.5 55.5l-5 22q-20 -80 -43 -137l-381 -991h-25z" />
    <glyph glyph-name="X" unicode="X" horiz-adv-x="1300" 
d="M88 0l477 758l-401 635h168l276 -435q10 -16 21.5 -40t17.5 -40l6 -16q20 61 43 96l275 435h162l-400 -635l481 -758h-167l-355 557q-10 16 -22 40.5t-18 40.5l-7 17q-20 -61 -43 -98l-352 -557h-162z" />
    <glyph glyph-name="Y" unicode="Y" horiz-adv-x="1343" 
d="M602 0v436l-526 957h166l379 -693q14 -24 28.5 -59t22.5 -59l8 -23q30 86 59 141l377 693h154l-516 -951v-442h-152z" />
    <glyph glyph-name="Z" unicode="Z" horiz-adv-x="1189" 
d="M80 0v23l778 1239h-668v131h897v-23l-776 -1239h781v-131h-1012z" />
    <glyph glyph-name="bracketleft" unicode="[" horiz-adv-x="624" 
d="M156 -262v1741h395v-123h-252v-1495h252v-123h-395z" />
    <glyph glyph-name="backslash" unicode="\" horiz-adv-x="878" 
d="M705 -262l-617 1741h143l617 -1741h-143z" />
    <glyph glyph-name="bracketright" unicode="]" horiz-adv-x="624" 
d="M74 -262v123h252v1495h-252v123h397v-1741h-397z" />
    <glyph glyph-name="asciicircum" unicode="^" horiz-adv-x="854" 
d="M139 948l279 461h18l279 -461h-119l-168 258l-170 -258h-119z" />
    <glyph glyph-name="underscore" unicode="_" horiz-adv-x="524" 
d="M-4 -262v127h532v-127h-532z" />
    <glyph glyph-name="grave" unicode="`" horiz-adv-x="1024" 
d="M459 1020l-191 395h164l139 -395h-112z" />
    <glyph glyph-name="a" unicode="a" horiz-adv-x="964" 
d="M678 498v20q0 119 -51 173t-148 54q-158 0 -248 -122l-88 79q121 164 346 164q148 0 240 -88t92 -258v-520h-143l6 127q-95 -143 -281 -143q-141 0 -226 65.5t-85 192.5q0 125 90.5 190.5t231.5 65.5h264zM678 389h-254q-88 0 -140.5 -34t-52.5 -107q0 -72 52.5 -110
t152.5 -38q101 0 171.5 51t70.5 132v106z" />
    <glyph glyph-name="b" unicode="b" horiz-adv-x="1128" 
d="M618 -16q-111 0 -197 54t-130 144l4 -182h-141v1479h141v-805q104 192 326 192q174 0 291.5 -126t117.5 -314q0 -189 -119 -315.5t-293 -126.5zM590 109q132 0 212.5 88.5t80.5 228.5q0 138 -80.5 225.5t-212.5 87.5q-134 0 -217.5 -88t-83.5 -225q0 -139 83.5 -228
t217.5 -89z" />
    <glyph glyph-name="c" unicode="c" horiz-adv-x="956" 
d="M539 -16q-187 0 -314 127t-127 313t127 314t314 128q208 0 333 -151l-102 -84q-81 108 -231 108q-133 0 -213 -89t-80 -226t80 -226t213 -89q150 0 243 110l99 -84q-126 -151 -342 -151z" />
    <glyph glyph-name="d" unicode="d" horiz-adv-x="1128" 
d="M510 -16q-174 0 -293 126.5t-119 315.5q0 188 118.5 314t291.5 126q222 0 326 -192v805h141v-1479h-141l4 182q-44 -90 -130.5 -144t-197.5 -54zM539 109q134 0 217.5 89t83.5 228q0 137 -83.5 225t-217.5 88q-132 0 -212.5 -87.5t-80.5 -225.5q0 -140 80.5 -228.5
t212.5 -88.5z" />
    <glyph glyph-name="e" unicode="e" horiz-adv-x="1056" 
d="M242 377q14 -125 96.5 -199t218.5 -74q166 0 268 113l88 -86q-130 -147 -356 -147q-206 0 -332.5 125.5t-126.5 314.5q0 186 126.5 314t312.5 128q201 0 317.5 -137.5t108.5 -351.5h-721zM244 485h575q-10 115 -82 187.5t-200 72.5q-120 0 -197.5 -70.5t-95.5 -189.5z
" />
    <glyph glyph-name="f" unicode="f" horiz-adv-x="651" 
d="M207 0v727h-137v121h137v385q0 137 63 204.5t172 67.5q144 0 215 -104l-94 -84q-24 31 -46.5 45t-61.5 14q-105 0 -105 -143v-385h228v-121h-228v-727h-143z" />
    <glyph glyph-name="g" unicode="g" horiz-adv-x="964" 
d="M602 848h307v-109h-166q68 -71 68 -174q0 -132 -92 -217.5t-238 -85.5q-103 0 -174 39q-33 -9 -51 -32t-18 -54q0 -80 110 -86l217 -16q181 -13 269 -80t88 -189q0 -139 -120.5 -220t-330.5 -81q-203 0 -318.5 75.5t-115.5 203.5q0 159 201 221q-119 40 -119 158
q0 53 31 93t86 62q-93 80 -93 209q0 132 95 216.5t243 84.5q65 0 121 -18zM479 373q94 0 148.5 52.5t54.5 139.5t-54.5 139t-148.5 52q-96 0 -150.5 -52t-54.5 -139t54.5 -139.5t150.5 -52.5zM328 0q-150 -45 -150 -166q0 -176 293 -176q143 0 224 47t81 133
q0 72 -51.5 105.5t-183.5 42.5z" />
    <glyph glyph-name="h" unicode="h" horiz-adv-x="1056" 
d="M152 0v1479h143v-797q40 86 119.5 135t181.5 49q143 0 230 -93.5t87 -256.5v-516h-143v500q0 114 -53 174.5t-158 60.5q-120 0 -192 -71.5t-72 -196.5v-467h-143z" />
    <glyph glyph-name="i" unicode="i" horiz-adv-x="454" 
d="M227 1094q-41 0 -71.5 28.5t-30.5 71.5t30.5 72.5t71.5 29.5t72 -29.5t31 -72.5t-31 -71.5t-72 -28.5zM156 0v848h143v-848h-143z" />
    <glyph glyph-name="j" unicode="j" horiz-adv-x="454" 
d="M227 1094q-41 0 -71.5 28.5t-30.5 71.5t30.5 72.5t71.5 29.5t72 -29.5t31 -72.5t-31 -71.5t-72 -28.5zM72 -455q-113 0 -189 84l80 86q18 -16 28 -24t29 -15.5t41 -7.5q95 0 95 129v1051h143v-1049q0 -123 -61.5 -188.5t-165.5 -65.5z" />
    <glyph glyph-name="k" unicode="k" horiz-adv-x="948" 
d="M295 258v-258h-143v1479h143v-949q0 -62 -10 -120l403 438h166l-326 -356l377 -492h-170l-307 397z" />
    <glyph glyph-name="l" unicode="l" horiz-adv-x="466" 
d="M162 0v1479h143v-1479h-143z" />
    <glyph glyph-name="m" unicode="m" horiz-adv-x="1550" 
d="M152 0v848h143l-4 -160q85 178 266 178q97 0 162 -47.5t94 -130.5q47 86 123.5 132t169.5 46q140 0 220.5 -86.5t80.5 -236.5v-543h-141v524q0 104 -45 157.5t-142 53.5q-103 0 -165 -68t-62 -192v-475h-143v524q0 211 -185 211q-104 0 -166.5 -68.5t-62.5 -191.5v-475
h-143z" />
    <glyph glyph-name="n" unicode="n" horiz-adv-x="1056" 
d="M152 0v848h143l-4 -174q41 91 121.5 141.5t183.5 50.5q143 0 230 -93.5t87 -256.5v-516h-143v500q0 114 -53 174.5t-158 60.5q-120 0 -192 -71.5t-72 -196.5v-467h-143z" />
    <glyph glyph-name="o" unicode="o" horiz-adv-x="1093" 
d="M549 -16q-191 0 -321 127t-130 313t130.5 314t320.5 128q189 0 317.5 -128t128.5 -314t-128.5 -313t-317.5 -127zM549 106q134 0 217.5 90t83.5 228t-83.5 227.5t-217.5 89.5q-135 0 -220 -89.5t-85 -227.5t85 -228t220 -90z" />
    <glyph glyph-name="p" unicode="p" horiz-adv-x="1128" 
d="M154 -434v1282h141l-4 -182q46 92 130.5 146t199.5 54q174 0 291.5 -126t117.5 -314q0 -189 -119 -315.5t-293 -126.5q-110 0 -195 53t-128 139v-610h-141zM590 109q132 0 212.5 88.5t80.5 228.5q0 138 -80.5 225.5t-212.5 87.5q-134 0 -217.5 -88t-83.5 -225
q0 -139 83.5 -228t217.5 -89z" />
    <glyph glyph-name="q" unicode="q" horiz-adv-x="1130" 
d="M834 -434v610q-43 -86 -128 -139t-196 -53q-174 0 -293 126.5t-119 315.5q0 188 118.5 314t291.5 126q117 0 200 -54t130 -146l-4 182h143v-1282h-143zM539 109q134 0 217.5 89t83.5 228q0 137 -83.5 225t-217.5 88q-132 0 -212.5 -87.5t-80.5 -225.5q0 -140 80.5 -228.5
t212.5 -88.5z" />
    <glyph glyph-name="r" unicode="r" horiz-adv-x="731" 
d="M152 0v848h143l-4 -166q38 93 103.5 137.5t144.5 44.5q88 0 147 -41l-55 -125q-50 33 -117 33q-97 0 -158 -71.5t-61 -213.5v-446h-143z" />
    <glyph glyph-name="s" unicode="s" horiz-adv-x="839" 
d="M436 -16q-132 0 -224.5 55t-137.5 141l110 64q86 -144 246 -144q85 0 132.5 34t47.5 93q0 23 -5 40.5t-20.5 32t-28.5 23.5t-45.5 21t-53 18.5t-68.5 20.5q-58 17 -97.5 34t-79 45.5t-59.5 72t-20 100.5q0 107 79 169t200 62q186 0 282 -137l-98 -76q-71 97 -184 97
q-69 0 -108.5 -29.5t-39.5 -79.5q0 -57 40.5 -84t160.5 -61q62 -17 105.5 -35t86.5 -47.5t65.5 -74t22.5 -103.5q0 -113 -78 -182.5t-231 -69.5z" />
    <glyph glyph-name="t" unicode="t" horiz-adv-x="688" 
d="M428 -18q-104 0 -165.5 65.5t-61.5 208.5v471h-131v121h131v442h141v-442h238v-121h-238v-473q0 -81 25.5 -114.5t74.5 -33.5q61 0 115 50l78 -90q-80 -84 -207 -84z" />
    <glyph glyph-name="u" unicode="u" horiz-adv-x="1054" 
d="M461 -18q-143 0 -230.5 92.5t-87.5 253.5v520h144v-506q0 -111 53 -170t156 -59q121 0 192.5 72t71.5 196v467h143v-848h-143l4 172q-41 -90 -121 -140t-182 -50z" />
    <glyph glyph-name="v" unicode="v" horiz-adv-x="946" 
d="M463 -16l-412 864h158l225 -490q12 -25 23.5 -61.5t17.5 -60.5l6 -23q18 88 45 145l222 490h147l-406 -864h-26z" />
    <glyph glyph-name="w" unicode="w" horiz-adv-x="1398" 
d="M399 -18l-348 866h156l182 -467q10 -24 20 -57t15 -54l4 -20q16 76 43 131l221 479h19l225 -477q12 -25 23 -58.5t17 -54.5l5 -20q16 78 39 133l182 465h146l-353 -866h-20l-234 510q-11 23 -21.5 54t-15.5 50l-4 20q-18 -75 -41 -124l-239 -510h-21z" />
    <glyph glyph-name="x" unicode="x" horiz-adv-x="962" 
d="M63 0l336 451l-290 397h170l159 -221q11 -15 23.5 -37t18.5 -36l7 -15q16 55 41 88l162 221h158l-287 -387l338 -461h-172l-201 279q-10 15 -23.5 38.5t-21.5 39.5l-8 16q-24 -61 -49 -94l-203 -279h-158z" />
    <glyph glyph-name="y" unicode="y" horiz-adv-x="946" 
d="M195 -434l217 506l-361 776h158l240 -526q10 -24 19.5 -60t13.5 -60l5 -24q14 91 39 144l222 526h147l-553 -1282h-147z" />
    <glyph glyph-name="z" unicode="z" horiz-adv-x="854" 
d="M66 0v20l489 709h-436v119h667v-23l-493 -706h483v-119h-710z" />
    <glyph glyph-name="braceleft" unicode="{" horiz-adv-x="751" 
d="M561 -262q-272 0 -272 295v309q0 78 -29.5 109.5t-89.5 31.5h-119v125h119q60 0 89.5 32t29.5 110v434q0 295 272 295h117v-123h-109q-68 0 -101.5 -38.5t-33.5 -135.5v-447q0 -89 -35 -132t-98 -56q133 -28 133 -191v-321q0 -97 33.5 -135.5t101.5 -38.5h109v-123h-117z
" />
    <glyph glyph-name="bar" unicode="|" horiz-adv-x="485" 
d="M174 -262v1741h137v-1741h-137z" />
    <glyph glyph-name="braceright" unicode="}" horiz-adv-x="749" 
d="M74 -262v123h108q68 0 101.5 38.5t33.5 135.5v321q0 164 134 189q-134 28 -134 190v447q0 97 -33.5 135.5t-101.5 38.5h-108v123h116q271 0 271 -295v-432q0 -78 30.5 -111t90.5 -33h116v-125h-116q-60 0 -90.5 -31.5t-30.5 -107.5v-311q0 -295 -271 -295h-116z" />
    <glyph glyph-name="asciitilde" unicode="~" horiz-adv-x="804" 
d="M211 459l-107 10q4 108 52 167.5t125 59.5q41 0 72 -16t69 -51q5 -4 14 -12t12.5 -11t10.5 -8.5t10 -7.5t8.5 -6t8.5 -5t7.5 -3.5t8.5 -3t8.5 -1t9.5 -0.5q33 0 50.5 28.5t23.5 92.5l106 -10q-4 -109 -50 -167t-124 -58q-41 0 -72 16t-69 51q-31 27 -42.5 35t-26 14.5
t-31.5 6.5q-62 0 -74 -121z" />
    <glyph glyph-name="nbspace" unicode="&#xa0;" horiz-adv-x="372" 
 />
    <glyph glyph-name="exclamdown" unicode="&#xa1;" horiz-adv-x="499" 
d="M250 1407q43 0 75.5 -32t32.5 -77q0 -46 -32 -78t-76 -32t-76.5 32t-32.5 78q0 45 33 77t76 32zM305 1004l25 -1004h-160l25 1004h110z" />
    <glyph glyph-name="cent" unicode="&#xa2;" horiz-adv-x="962" 
d="M477 -12q-165 22 -272 144t-107 292t107 293t272 145v221h105v-219q180 -11 292 -149l-100 -82q-73 92 -192 106v-630q124 13 204 110l99 -84q-116 -138 -303 -149v-224h-105v226zM477 735q-107 -20 -170 -105t-63 -206t62.5 -206t170.5 -105v622z" />
    <glyph glyph-name="sterling" unicode="&#xa3;" horiz-adv-x="1114" 
d="M338 532h-195v115h146q-64 161 -64 268q0 151 106.5 251t280.5 100q135 0 232.5 -63.5t144.5 -164.5l-119 -65q-44 84 -102.5 124t-155.5 40q-111 0 -174 -60.5t-63 -167.5q0 -105 59 -262h332v-115h-289q64 -182 64 -303v-10q52 -37 80.5 -54.5t75.5 -35.5t91 -18
q109 0 187 88l86 -88q-101 -127 -268 -127q-140 0 -291 122q-36 -55 -98 -88.5t-134 -33.5q-96 0 -154.5 52t-58.5 134q0 79 56.5 128.5t144.5 49.5q74 0 156 -45q-13 84 -76 229zM412 180q-92 70 -144 70q-44 0 -69 -23.5t-25 -60.5t25 -60.5t69 -23.5q47 0 88 27.5
t56 70.5z" />
    <glyph glyph-name="currency" unicode="&#xa4;" horiz-adv-x="1271" 
d="M231 580h-149v114h174q53 160 189.5 257.5t310.5 97.5q262 0 407 -193l-106 -82q-57 76 -127.5 113t-173.5 37q-122 0 -214.5 -61.5t-135.5 -168.5h444v-114h-473q-4 -40 -4 -64q0 -25 4 -65h473v-115h-442q43 -106 135.5 -166.5t212.5 -60.5q111 0 184 39t131 116
l105 -74q-134 -206 -420 -206q-173 0 -309.5 96.5t-190.5 255.5h-174v115h149q-4 40 -4 65q0 24 4 64z" />
    <glyph glyph-name="yen" unicode="&#xa5;" horiz-adv-x="1142" 
d="M340 598l-256 434h162l274 -477q15 -26 28.5 -60.5t19.5 -55.5l7 -21q25 78 58 137l274 477h152l-256 -434h219v-115h-287l-84 -141h371v-115h-377v-227h-147v227h-379v115h373l-84 141h-289v115h221z" />
    <glyph glyph-name="brokenbar" unicode="&#xa6;" 
d="M207 387q-44 0 -77.5 33.5t-33.5 79.5t33.5 78t77.5 32q45 0 77.5 -31.5t32.5 -78.5t-32.5 -80t-77.5 -33z" />
    <glyph glyph-name="section" unicode="&#xa7;" horiz-adv-x="1013" 
d="M231 829q-41 65 -41 152q0 125 91 205t229 80q235 0 328 -207l-117 -53q-33 67 -80.5 104t-126.5 37q-85 0 -134.5 -43.5t-49.5 -118.5q0 -66 33 -107t112 -73l201 -80q143 -56 207.5 -127.5t64.5 -169.5q0 -74 -44 -128t-120 -85q47 -65 47 -152q0 -124 -87.5 -199
t-245.5 -75q-132 0 -232 61.5t-145 159.5l115 58q81 -158 258 -158q91 0 142.5 41.5t51.5 111.5q0 59 -39 97t-129 73l-182 72q-143 55 -207.5 125.5t-64.5 177.5q0 75 44 131.5t121 89.5zM715 283q98 43 98 127q0 64 -38.5 104.5t-139.5 81.5l-201 80q-91 38 -147 86
q-84 -43 -84 -137q0 -69 37.5 -111t134.5 -80l186 -72q104 -40 154 -79z" />
    <glyph glyph-name="dieresis" unicode="&#xa8;" horiz-adv-x="1024" 
d="M690 1057q-37 0 -66.5 28t-29.5 66q0 39 29 66.5t67 27.5q37 0 65.5 -27.5t28.5 -66.5q0 -38 -28.5 -66t-65.5 -28zM334 1057q-37 0 -65.5 28t-28.5 66q0 39 28.5 66.5t65.5 27.5q39 0 67.5 -27.5t28.5 -66.5q0 -38 -29 -66t-67 -28z" />
    <glyph glyph-name="copyright" unicode="&#xa9;" horiz-adv-x="1224" 
d="M614 -14q-144 0 -266.5 68t-195 190.5t-72.5 271.5q0 150 72.5 273t195 191.5t266.5 68.5q143 0 264.5 -68.5t194 -191.5t72.5 -273q0 -112 -43 -211t-115 -168.5t-169.5 -110t-203.5 -40.5zM614 68q188 0 316.5 127t128.5 321q0 196 -128.5 323.5t-316.5 127.5
q-190 0 -319 -127.5t-129 -323.5q0 -194 129 -321t319 -127zM621 211q-129 0 -216.5 87.5t-87.5 217.5q0 131 86 219t213 88q139 0 236 -104l-84 -78q-54 70 -143 70q-78 0 -127 -55t-49 -140q0 -83 49.5 -137.5t126.5 -54.5q90 0 149 73l84 -78q-93 -108 -237 -108z" />
    <glyph glyph-name="ordfeminine" unicode="&#xaa;" horiz-adv-x="823" 
d="M582 743q0 108 -43 151.5t-125 43.5q-122 0 -207 -102l-82 71q100 142 299 142q130 0 210.5 -74t80.5 -227v-433h-133l2 95q-36 -52 -96.5 -81.5t-137.5 -29.5q-120 0 -195 57.5t-75 165.5q0 107 81 164t204 57h217zM582 643h-203q-166 0 -166 -117q0 -60 44 -90t124 -30
q86 0 143.5 42t57.5 113v82z" />
    <glyph glyph-name="guillemotleft" unicode="&#xab;" horiz-adv-x="813" 
d="M588 76l-193 325v17l193 321h147l-196 -329l196 -334h-147zM270 76l-192 325v17l192 321h148l-197 -329l197 -334h-148z" />
    <glyph glyph-name="logicalnot" unicode="&#xac;" 
d="M207 387q-44 0 -77.5 33.5t-33.5 79.5t33.5 78t77.5 32q45 0 77.5 -31.5t32.5 -78.5t-32.5 -80t-77.5 -33z" />
    <glyph glyph-name="registered" unicode="&#xae;" horiz-adv-x="1052" 
d="M522 543q-185 0 -314.5 125.5t-129.5 312.5q0 125 60 226.5t161.5 157.5t222.5 56q189 0 321 -125.5t132 -314.5q0 -187 -132.5 -312.5t-320.5 -125.5zM522 614q162 0 266.5 101.5t104.5 265.5q0 165 -104.5 267t-266.5 102q-158 0 -259 -101.5t-101 -267.5
q0 -164 101 -265.5t259 -101.5zM627 885l96 -144h-98l-80 121q-8 -2 -29 -2h-61v-119h-90v486h149q101 0 155 -53t54 -132q0 -51 -25 -92.5t-71 -64.5zM455 932h59q119 0 119 108q0 52 -29 81.5t-90 29.5h-59v-219z" />
    <glyph glyph-name="macron" unicode="&#xaf;" horiz-adv-x="1024" 
d="M297 1061v113h430v-113h-430z" />
    <glyph glyph-name="macron" unicode="&#x2c9;" horiz-adv-x="1024" 
d="M297 1061v113h430v-113h-430z" />
    <glyph glyph-name="degree" unicode="&#xb0;" horiz-adv-x="665" 
d="M334 586q-100 0 -170 67t-70 164q0 98 70 165t170 67q99 0 168 -67t69 -165q0 -97 -69.5 -164t-167.5 -67zM334 680q58 0 94.5 38.5t36.5 98.5t-36.5 98.5t-94.5 38.5q-60 0 -96.5 -38.5t-36.5 -98.5t36.5 -98.5t96.5 -38.5z" />
    <glyph glyph-name="twosuperior" unicode="&#xb2;" 
d="M207 387q-44 0 -77.5 33.5t-33.5 79.5t33.5 78t77.5 32q45 0 77.5 -31.5t32.5 -78.5t-32.5 -80t-77.5 -33z" />
    <glyph glyph-name="threesuperior" unicode="&#xb3;" 
d="M207 387q-44 0 -77.5 33.5t-33.5 79.5t33.5 78t77.5 32q45 0 77.5 -31.5t32.5 -78.5t-32.5 -80t-77.5 -33z" />
    <glyph glyph-name="acute" unicode="&#xb4;" horiz-adv-x="1024" 
d="M453 1020l139 395h164l-191 -395h-112z" />
    <glyph glyph-name="mu" unicode="&#xb5;" 
d="M207 387q-44 0 -77.5 33.5t-33.5 79.5t33.5 78t77.5 32q45 0 77.5 -31.5t32.5 -78.5t-32.5 -80t-77.5 -33z" />
    <glyph glyph-name="mu" unicode="&#x3bc;" 
d="M207 387q-44 0 -77.5 33.5t-33.5 79.5t33.5 78t77.5 32q45 0 77.5 -31.5t32.5 -78.5t-32.5 -80t-77.5 -33z" />
    <glyph glyph-name="paragraph" unicode="&#xb6;" horiz-adv-x="1280" 
d="M639 0v623h-131q-185 0 -294.5 109.5t-109.5 273.5q0 163 110 275t294 112h582v-1393h-142v1266h-164v-1266h-145zM510 748h129v518h-129q-116 0 -182 -70t-66 -188t66 -189t182 -71z" />
    <glyph glyph-name="periodcentered" unicode="&#xb7;" horiz-adv-x="413" 
d="M207 387q-44 0 -77.5 33.5t-33.5 79.5t33.5 78t77.5 32q45 0 77.5 -31.5t32.5 -78.5t-32.5 -80t-77.5 -33z" />
    <glyph glyph-name="periodcentered" unicode="&#x2219;" horiz-adv-x="413" 
d="M207 387q-44 0 -77.5 33.5t-33.5 79.5t33.5 78t77.5 32q45 0 77.5 -31.5t32.5 -78.5t-32.5 -80t-77.5 -33z" />
    <glyph glyph-name="cedilla" unicode="&#xb8;" horiz-adv-x="1024" 
d="M524 -475q-75 0 -127.5 33.5t-79.5 87.5l89 51q16 -26 26 -39t32 -25t52 -12q39 0 65.5 24t26.5 68q0 42 -27.5 69.5t-80.5 27.5h-45v190h98v-109q70 -10 119 -59.5t49 -126.5q0 -82 -58.5 -131t-138.5 -49z" />
    <glyph glyph-name="onesuperior" unicode="&#xb9;" 
d="M207 387q-44 0 -77.5 33.5t-33.5 79.5t33.5 78t77.5 32q45 0 77.5 -31.5t32.5 -78.5t-32.5 -80t-77.5 -33z" />
    <glyph glyph-name="ordmasculine" unicode="&#xba;" horiz-adv-x="929" 
d="M465 299q-158 0 -268.5 107.5t-110.5 267.5q0 159 110.5 267t268.5 108t268.5 -108t110.5 -267q0 -160 -110.5 -267.5t-268.5 -107.5zM465 412q108 0 176 73t68 189q0 114 -68 187t-176 73t-175 -72.5t-67 -187.5q0 -116 67 -189t175 -73z" />
    <glyph glyph-name="guillemotright" unicode="&#xbb;" horiz-adv-x="813" 
d="M395 76l197 332l-197 331h148l192 -323v-17l-192 -323h-148zM78 76l196 332l-196 331h147l193 -323v-17l-193 -323h-147z" />
    <glyph glyph-name="onequarter" unicode="&#xbc;" 
d="M207 387q-44 0 -77.5 33.5t-33.5 79.5t33.5 78t77.5 32q45 0 77.5 -31.5t32.5 -78.5t-32.5 -80t-77.5 -33z" />
    <glyph glyph-name="onehalf" unicode="&#xbd;" 
d="M207 387q-44 0 -77.5 33.5t-33.5 79.5t33.5 78t77.5 32q45 0 77.5 -31.5t32.5 -78.5t-32.5 -80t-77.5 -33z" />
    <glyph glyph-name="threequarters" unicode="&#xbe;" 
d="M207 387q-44 0 -77.5 33.5t-33.5 79.5t33.5 78t77.5 32q45 0 77.5 -31.5t32.5 -78.5t-32.5 -80t-77.5 -33z" />
    <glyph glyph-name="questiondown" unicode="&#xbf;" horiz-adv-x="960" 
d="M539 1407q43 0 75.5 -32t32.5 -77q0 -46 -32 -78t-76 -32t-76.5 32t-32.5 78q0 45 33 77t76 32zM604 1010v-361h-67q-133 0 -210 -78t-77 -196q0 -120 70.5 -191t185.5 -71q101 0 167.5 43.5t112.5 136.5l119 -62q-51 -120 -154.5 -183.5t-244.5 -63.5q-181 0 -292.5 108
t-111.5 283q0 162 101.5 268.5t265.5 118.5v248h135z" />
    <glyph glyph-name="Agrave" unicode="&#xc0;" horiz-adv-x="1343" 
d="M612 1542l-190 395h164l139 -395h-113zM76 0l577 1407h25l590 -1407h-156l-94 233h-705l-92 -233h-145zM365 360h600l-246 619q-12 29 -25.5 70.5t-20.5 68.5l-7 27q-29 -100 -56 -166z" />
    <glyph glyph-name="Aacute" unicode="&#xc1;" horiz-adv-x="1343" 
d="M612 1542l140 395h163l-190 -395h-113zM76 0l577 1407h25l590 -1407h-156l-94 233h-705l-92 -233h-145zM365 360h600l-246 619q-12 29 -25.5 70.5t-20.5 68.5l-7 27q-29 -100 -56 -166z" />
    <glyph glyph-name="Acircumflex" unicode="&#xc2;" horiz-adv-x="1343" 
d="M393 1538l262 395h19l262 -395h-125l-145 203l-148 -203h-125zM76 0l577 1407h25l590 -1407h-156l-94 233h-705l-92 -233h-145zM365 360h600l-246 619q-12 29 -25.5 70.5t-20.5 68.5l-7 27q-29 -100 -56 -166z" />
    <glyph glyph-name="Atilde" unicode="&#xc3;" horiz-adv-x="1343" 
d="M473 1532l-106 8q6 108 54 167.5t124 59.5q40 0 71.5 -16t69.5 -49q41 -37 58 -47t40 -10q32 0 50 28.5t24 89.5l107 -10q-6 -108 -53 -166.5t-124 -58.5q-39 0 -70.5 16.5t-70.5 50.5q-42 37 -58.5 47.5t-39.5 10.5q-64 0 -76 -121zM76 0l577 1407h25l590 -1407h-156
l-94 233h-705l-92 -233h-145zM365 360h600l-246 619q-12 29 -25.5 70.5t-20.5 68.5l-7 27q-29 -100 -56 -166z" />
    <glyph glyph-name="Adieresis" unicode="&#xc4;" horiz-adv-x="1343" 
d="M848 1579q-37 0 -66.5 28t-29.5 66q0 39 29 66.5t67 27.5q37 0 65.5 -27.5t28.5 -66.5q0 -38 -28.5 -66t-65.5 -28zM492 1579q-37 0 -66 28t-29 66q0 39 28.5 66.5t66.5 27.5q39 0 67.5 -27.5t28.5 -66.5q0 -38 -29 -66t-67 -28zM76 0l577 1407h25l590 -1407h-156
l-94 233h-705l-92 -233h-145zM365 360h600l-246 619q-12 29 -25.5 70.5t-20.5 68.5l-7 27q-29 -100 -56 -166z" />
    <glyph glyph-name="Aring" unicode="&#xc5;" horiz-adv-x="1343" 
d="M670 1489q-90 0 -152.5 60t-62.5 145q0 87 62.5 147t152.5 60t152.5 -60t62.5 -147q0 -85 -62.5 -145t-152.5 -60zM76 0l577 1407h25l590 -1407h-156l-94 233h-705l-92 -233h-145zM670 1581q47 0 76.5 31t29.5 82q0 52 -29 82t-77 30t-77.5 -30t-29.5 -82q0 -51 30 -82
t77 -31zM365 360h600l-246 619q-12 29 -25.5 70.5t-20.5 68.5l-7 27q-29 -100 -56 -166z" />
    <glyph glyph-name="AE" unicode="&#xc6;" horiz-adv-x="1951" 
d="M55 0l930 1393h817v-131h-698v-654h622v-129h-622v-348h727v-131h-877v233h-585l-156 -233h-158zM457 365h497v630q0 33 4 76t8 69l3 27q-41 -90 -84 -153z" />
    <glyph glyph-name="Ccedilla" unicode="&#xc7;" horiz-adv-x="1486" 
d="M825 -16v-93q70 -10 119 -59.5t49 -126.5q0 -82 -58 -131t-138 -49q-75 0 -127.5 33.5t-79.5 87.5l88 51q16 -26 26 -39t32 -25t52 -12q39 0 66 24t27 68q0 42 -28 69.5t-81 27.5h-45v180q-130 16 -243 75t-195.5 149.5t-130 215.5t-47.5 266q0 205 96 369.5t259 254
t359 89.5q372 0 553 -270l-112 -82q-70 103 -182 161t-259 58q-161 0 -289.5 -75.5t-200 -208t-71.5 -296.5q0 -123 42 -230.5t116 -184t178.5 -120.5t224.5 -44q149 0 265.5 61t193.5 172l115 -80q-93 -137 -241 -211.5t-333 -74.5z" />
    <glyph glyph-name="Egrave" unicode="&#xc8;" horiz-adv-x="1187" 
d="M575 1542l-190 395h164l139 -395h-113zM190 0v1393h848v-131h-700v-654h625v-129h-625v-348h729v-131h-877z" />
    <glyph glyph-name="Eacute" unicode="&#xc9;" horiz-adv-x="1187" 
d="M551 1542l139 395h164l-190 -395h-113zM190 0v1393h848v-131h-700v-654h625v-129h-625v-348h729v-131h-877z" />
    <glyph glyph-name="Ecircumflex" unicode="&#xca;" horiz-adv-x="1187" 
d="M352 1538l262 395h19l262 -395h-125l-145 203l-148 -203h-125zM190 0v1393h848v-131h-700v-654h625v-129h-625v-348h729v-131h-877z" />
    <glyph glyph-name="Edieresis" unicode="&#xcb;" horiz-adv-x="1187" 
d="M801 1579q-37 0 -66.5 28t-29.5 66q0 39 29 66.5t67 27.5q37 0 65.5 -27.5t28.5 -66.5q0 -38 -28.5 -66t-65.5 -28zM444 1579q-37 0 -65.5 28t-28.5 66q0 39 28.5 66.5t65.5 27.5q39 0 68 -27.5t29 -66.5q0 -38 -29 -66t-68 -28zM190 0v1393h848v-131h-700v-654h625v-129
h-625v-348h729v-131h-877z" />
    <glyph glyph-name="Igrave" unicode="&#xcc;" horiz-adv-x="542" 
d="M211 1542l-191 395h164l140 -395h-113zM197 0v1393h149v-1393h-149z" />
    <glyph glyph-name="Iacute" unicode="&#xcd;" horiz-adv-x="542" 
d="M217 1542l139 395h164l-190 -395h-113zM197 0v1393h149v-1393h-149z" />
    <glyph glyph-name="Icircumflex" unicode="&#xce;" horiz-adv-x="542" 
d="M-2 1538l262 395h19l262 -395h-125l-146 203l-147 -203h-125zM197 0v1393h149v-1393h-149z" />
    <glyph glyph-name="Idieresis" unicode="&#xcf;" horiz-adv-x="542" 
d="M449 1579q-37 0 -67 28t-30 66q0 39 29.5 66.5t67.5 27.5q37 0 65.5 -27.5t28.5 -66.5q0 -38 -28.5 -66t-65.5 -28zM92 1579q-37 0 -65.5 28t-28.5 66q0 39 28.5 66.5t65.5 27.5q39 0 67.5 -27.5t28.5 -66.5q0 -38 -29 -66t-67 -28zM197 0v1393h149v-1393h-149z" />
    <glyph glyph-name="Eth" unicode="&#xd0;" horiz-adv-x="1392" 
d="M190 0v496h-161v129h161v768h355q167 0 305.5 -51t233 -142.5t146.5 -221t52 -282.5q0 -312 -199.5 -504t-537.5 -192h-355zM338 133h197q289 0 440 152.5t151 410.5t-151 411t-440 153h-197v-635h375v-129h-375v-363z" />
    <glyph glyph-name="Ntilde" unicode="&#xd1;" horiz-adv-x="1460" 
d="M537 1532l-107 8q6 108 54 167.5t124 59.5q67 0 142 -65q41 -37 58 -47t40 -10q32 0 50 28.5t24 89.5l106 -10q-6 -108 -52.5 -166.5t-123.5 -58.5q-39 0 -70.5 16.5t-70.5 50.5q-42 37 -59 47.5t-40 10.5q-63 0 -75 -121zM1245 -14l-831 983q-17 21 -41.5 53t-40.5 54
l-15 22q13 -99 13 -158v-940h-140v1407h25l832 -983q17 -21 41 -53t40 -54l15 -22q-10 99 -10 158v940h137v-1407h-25z" />
    <glyph glyph-name="Ograve" unicode="&#xd2;" horiz-adv-x="1652" 
d="M772 1542l-190 395h163l140 -395h-113zM825 -16q-197 0 -359.5 89.5t-258.5 253.5t-96 369t96 369.5t259 254t359 89.5q197 0 360.5 -89.5t260 -254t96.5 -369.5t-96.5 -369t-259.5 -253.5t-361 -89.5zM825 117q244 0 404 165t160 414q0 164 -72.5 296.5t-201.5 208
t-290 75.5q-242 0 -401.5 -165t-159.5 -415q0 -123 42.5 -230.5t116.5 -184t178 -120.5t224 -44z" />
    <glyph glyph-name="Oacute" unicode="&#xd3;" horiz-adv-x="1652" 
d="M766 1542l139 395h164l-190 -395h-113zM825 -16q-197 0 -359.5 89.5t-258.5 253.5t-96 369t96 369.5t259 254t359 89.5q197 0 360.5 -89.5t260 -254t96.5 -369.5t-96.5 -369t-259.5 -253.5t-361 -89.5zM825 117q244 0 404 165t160 414q0 164 -72.5 296.5t-201.5 208
t-290 75.5q-242 0 -401.5 -165t-159.5 -415q0 -123 42.5 -230.5t116.5 -184t178 -120.5t224 -44z" />
    <glyph glyph-name="Ocircumflex" unicode="&#xd4;" horiz-adv-x="1652" 
d="M553 1538l262 395h19l262 -395h-125l-146 203l-147 -203h-125zM825 -16q-197 0 -359.5 89.5t-258.5 253.5t-96 369t96 369.5t259 254t359 89.5q197 0 360.5 -89.5t260 -254t96.5 -369.5t-96.5 -369t-259.5 -253.5t-361 -89.5zM825 117q244 0 404 165t160 414
q0 164 -72.5 296.5t-201.5 208t-290 75.5q-242 0 -401.5 -165t-159.5 -415q0 -123 42.5 -230.5t116.5 -184t178 -120.5t224 -44z" />
    <glyph glyph-name="Otilde" unicode="&#xd5;" horiz-adv-x="1652" 
d="M633 1532l-107 8q6 108 54.5 167.5t124.5 59.5q40 0 71.5 -16t69.5 -49q41 -37 58 -47t40 -10q32 0 50 28.5t24 89.5l106 -10q-6 -108 -52.5 -166.5t-123.5 -58.5q-39 0 -70.5 16.5t-70.5 50.5q-42 37 -58.5 47.5t-39.5 10.5q-64 0 -76 -121zM825 -16q-197 0 -359.5 89.5
t-258.5 253.5t-96 369t96 369.5t259 254t359 89.5q197 0 360.5 -89.5t260 -254t96.5 -369.5t-96.5 -369t-259.5 -253.5t-361 -89.5zM825 117q244 0 404 165t160 414q0 164 -72.5 296.5t-201.5 208t-290 75.5q-242 0 -401.5 -165t-159.5 -415q0 -123 42.5 -230.5t116.5 -184
t178 -120.5t224 -44z" />
    <glyph glyph-name="Odieresis" unicode="&#xd6;" horiz-adv-x="1652" 
d="M1004 1579q-37 0 -67 28t-30 66q0 39 29.5 66.5t67.5 27.5q37 0 65.5 -27.5t28.5 -66.5q0 -38 -28.5 -66t-65.5 -28zM647 1579q-37 0 -65.5 28t-28.5 66q0 39 28.5 66.5t65.5 27.5q39 0 67.5 -27.5t28.5 -66.5q0 -38 -29 -66t-67 -28zM825 -16q-197 0 -359.5 89.5
t-258.5 253.5t-96 369t96 369.5t259 254t359 89.5q197 0 360.5 -89.5t260 -254t96.5 -369.5t-96.5 -369t-259.5 -253.5t-361 -89.5zM825 117q244 0 404 165t160 414q0 164 -72.5 296.5t-201.5 208t-290 75.5q-242 0 -401.5 -165t-159.5 -415q0 -123 42.5 -230.5t116.5 -184
t178 -120.5t224 -44z" />
    <glyph glyph-name="multiply" unicode="&#xd7;" 
d="M207 387q-44 0 -77.5 33.5t-33.5 79.5t33.5 78t77.5 32q45 0 77.5 -31.5t32.5 -78.5t-32.5 -80t-77.5 -33z" />
    <glyph glyph-name="Oslash" unicode="&#xd8;" horiz-adv-x="1652" 
d="M1380 1159q162 -196 162 -463q0 -205 -96.5 -369t-259.5 -253.5t-361 -89.5q-268 0 -463 159l-163 -163l-93 90l166 163q-161 195 -161 463q0 205 96 369.5t259 254t359 89.5q266 0 465 -162l164 164l90 -90zM377 338q51 51 135.5 135t262.5 261t296 295t117 118
q-148 129 -363 129q-242 0 -401.5 -165t-159.5 -415q0 -204 113 -358zM1276 1055l-811 -811q152 -127 360 -127q244 0 404 165t160 414q0 205 -113 359z" />
    <glyph glyph-name="Ugrave" unicode="&#xd9;" horiz-adv-x="1355" 
d="M625 1542l-191 395h164l139 -395h-112zM678 -16q-223 0 -361.5 127.5t-138.5 363.5v918h148v-908q0 -182 93 -276t259 -94q165 0 258.5 94t93.5 276v908h148v-918q0 -236 -139.5 -363.5t-360.5 -127.5z" />
    <glyph glyph-name="Uacute" unicode="&#xda;" horiz-adv-x="1355" 
d="M618 1542l140 395h164l-191 -395h-113zM678 -16q-223 0 -361.5 127.5t-138.5 363.5v918h148v-908q0 -182 93 -276t259 -94q165 0 258.5 94t93.5 276v908h148v-918q0 -236 -139.5 -363.5t-360.5 -127.5z" />
    <glyph glyph-name="Ucircumflex" unicode="&#xdb;" horiz-adv-x="1355" 
d="M406 1538l262 395h18l262 -395h-125l-145 203l-148 -203h-124zM678 -16q-223 0 -361.5 127.5t-138.5 363.5v918h148v-908q0 -182 93 -276t259 -94q165 0 258.5 94t93.5 276v908h148v-918q0 -236 -139.5 -363.5t-360.5 -127.5z" />
    <glyph glyph-name="Udieresis" unicode="&#xdc;" horiz-adv-x="1355" 
d="M856 1579q-37 0 -66.5 28t-29.5 66q0 39 29 66.5t67 27.5q37 0 65.5 -27.5t28.5 -66.5q0 -38 -28.5 -66t-65.5 -28zM500 1579q-37 0 -65.5 28t-28.5 66q0 39 28.5 66.5t65.5 27.5q39 0 67.5 -27.5t28.5 -66.5q0 -38 -29 -66t-67 -28zM678 -16q-223 0 -361.5 127.5
t-138.5 363.5v918h148v-908q0 -182 93 -276t259 -94q165 0 258.5 94t93.5 276v908h148v-918q0 -236 -139.5 -363.5t-360.5 -127.5z" />
    <glyph glyph-name="Yacute" unicode="&#xdd;" horiz-adv-x="1343" 
d="M612 1542l140 395h163l-190 -395h-113zM602 0v436l-526 957h166l379 -693q14 -24 28.5 -59t22.5 -59l8 -23q30 86 59 141l377 693h154l-516 -951v-442h-152z" />
    <glyph glyph-name="Thorn" unicode="&#xde;" horiz-adv-x="1196" 
d="M190 0v1393h148v-162h180q271 0 417 -144t146 -380q0 -115 -36 -210.5t-105 -166t-177 -109.5t-245 -39h-180v-182h-148zM338 313h172q218 0 318 105.5t100 288.5t-100 288t-318 105h-172v-787z" />
    <glyph glyph-name="germandbls" unicode="&#xdf;" horiz-adv-x="1105" 
d="M580 -10q-91 0 -156 26l31 117q43 -18 110 -18q144 0 219.5 85t75.5 230q0 154 -96.5 239.5t-271.5 82.5v118q111 12 175 84t64 189q0 121 -60.5 181t-154.5 60q-98 0 -159.5 -64.5t-61.5 -203.5v-1116h-143v1118q0 97 29.5 173t80.5 121.5t115.5 69t138.5 23.5
q152 0 251 -94t99 -264q0 -109 -49.5 -191.5t-146.5 -124.5q154 -30 246 -136t92 -267q0 -194 -113.5 -316t-314.5 -122z" />
    <glyph glyph-name="agrave" unicode="&#xe0;" horiz-adv-x="964" 
d="M436 1020l-190 395h164l139 -395h-113zM678 498v20q0 119 -51 173t-148 54q-158 0 -248 -122l-88 79q121 164 346 164q148 0 240 -88t92 -258v-520h-143l6 127q-95 -143 -281 -143q-141 0 -226 65.5t-85 192.5q0 125 90.5 190.5t231.5 65.5h264zM678 389h-254
q-88 0 -140.5 -34t-52.5 -107q0 -72 52.5 -110t152.5 -38q101 0 171.5 51t70.5 132v106z" />
    <glyph glyph-name="aacute" unicode="&#xe1;" horiz-adv-x="964" 
d="M416 1020l139 395h164l-191 -395h-112zM678 498v20q0 119 -51 173t-148 54q-158 0 -248 -122l-88 79q121 164 346 164q148 0 240 -88t92 -258v-520h-143l6 127q-95 -143 -281 -143q-141 0 -226 65.5t-85 192.5q0 125 90.5 190.5t231.5 65.5h264zM678 389h-254
q-88 0 -140.5 -34t-52.5 -107q0 -72 52.5 -110t152.5 -38q101 0 171.5 51t70.5 132v106z" />
    <glyph glyph-name="acircumflex" unicode="&#xe2;" horiz-adv-x="964" 
d="M213 1016l262 395h19l262 -395h-125l-146 203l-147 -203h-125zM678 498v20q0 119 -51 173t-148 54q-158 0 -248 -122l-88 79q121 164 346 164q148 0 240 -88t92 -258v-520h-143l6 127q-95 -143 -281 -143q-141 0 -226 65.5t-85 192.5q0 125 90.5 190.5t231.5 65.5h264z
M678 389h-254q-88 0 -140.5 -34t-52.5 -107q0 -72 52.5 -110t152.5 -38q101 0 171.5 51t70.5 132v106z" />
    <glyph glyph-name="atilde" unicode="&#xe3;" horiz-adv-x="964" 
d="M281 1010l-107 8q6 108 54 167.5t124 59.5q67 0 142 -65q42 -37 58.5 -47.5t39.5 -10.5q62 0 74 119l106 -10q-6 -108 -52.5 -166.5t-123.5 -58.5q-39 0 -70.5 16.5t-70.5 50.5q-41 36 -58 46.5t-41 10.5q-63 0 -75 -120zM678 498v20q0 119 -51 173t-148 54
q-158 0 -248 -122l-88 79q121 164 346 164q148 0 240 -88t92 -258v-520h-143l6 127q-95 -143 -281 -143q-141 0 -226 65.5t-85 192.5q0 125 90.5 190.5t231.5 65.5h264zM678 389h-254q-88 0 -140.5 -34t-52.5 -107q0 -72 52.5 -110t152.5 -38q101 0 171.5 51t70.5 132v106z
" />
    <glyph glyph-name="adieresis" unicode="&#xe4;" horiz-adv-x="964" 
d="M664 1057q-37 0 -67 28t-30 66q0 39 29.5 66.5t67.5 27.5q37 0 65.5 -27.5t28.5 -66.5q0 -38 -28.5 -66t-65.5 -28zM307 1057q-37 0 -65.5 28t-28.5 66q0 39 28.5 66.5t65.5 27.5q39 0 67.5 -27.5t28.5 -66.5q0 -38 -29 -66t-67 -28zM678 498v20q0 119 -51 173t-148 54
q-158 0 -248 -122l-88 79q121 164 346 164q148 0 240 -88t92 -258v-520h-143l6 127q-95 -143 -281 -143q-141 0 -226 65.5t-85 192.5q0 125 90.5 190.5t231.5 65.5h264zM678 389h-254q-88 0 -140.5 -34t-52.5 -107q0 -72 52.5 -110t152.5 -38q101 0 171.5 51t70.5 132v106z
" />
    <glyph glyph-name="aring" unicode="&#xe5;" horiz-adv-x="964" 
d="M481 991q-90 0 -152.5 60t-62.5 145q0 87 62.5 147t152.5 60t152.5 -60t62.5 -147q0 -85 -62.5 -145t-152.5 -60zM678 498v20q0 119 -51 173t-148 54q-158 0 -248 -122l-88 79q121 164 346 164q148 0 240 -88t92 -258v-520h-143l6 127q-95 -143 -281 -143
q-141 0 -226 65.5t-85 192.5q0 125 90.5 190.5t231.5 65.5h264zM481 1083q47 0 77 31t30 82q0 52 -29.5 82.5t-77.5 30.5t-77 -30.5t-29 -82.5q0 -51 29.5 -82t76.5 -31zM678 389h-254q-88 0 -140.5 -34t-52.5 -107q0 -72 52.5 -110t152.5 -38q101 0 171.5 51t70.5 132v106z
" />
    <glyph glyph-name="ae" unicode="&#xe6;" horiz-adv-x="1636" 
d="M678 492v24q0 120 -50.5 174.5t-148.5 54.5q-158 0 -248 -122l-88 79q121 164 346 164q104 0 176.5 -49.5t104.5 -142.5q55 86 145 139t199 53q201 0 317.5 -136t110.5 -345h-723q12 -125 95.5 -203t220.5 -78q164 0 270 113l86 -86q-130 -147 -354 -147
q-128 0 -223.5 52.5t-149.5 145.5q-32 -96 -128 -147t-214 -51q-151 0 -240.5 65t-89.5 191q0 125 91 188.5t231 63.5h264zM823 492h574q-10 108 -82.5 180.5t-198.5 72.5q-117 0 -195.5 -70t-97.5 -183zM678 385h-254q-87 0 -140 -33t-53 -106q0 -146 205 -146
q101 0 171.5 51t70.5 132v102z" />
    <glyph glyph-name="ccedilla" unicode="&#xe7;" horiz-adv-x="956" 
d="M444 -6q-153 31 -249.5 150t-96.5 280q0 186 127 314t314 128q208 0 333 -151l-102 -84q-81 108 -231 108q-133 0 -213 -89t-80 -226t80 -226t213 -89q150 0 243 110l99 -84q-126 -151 -338 -151v-93q70 -10 119 -59.5t49 -126.5q0 -82 -58.5 -131t-138.5 -49
q-75 0 -127.5 33.5t-79.5 87.5l88 51q16 -26 26.5 -39t32.5 -25t52 -12q39 0 65.5 24t26.5 68q0 42 -28 69.5t-81 27.5h-45v184z" />
    <glyph glyph-name="egrave" unicode="&#xe8;" horiz-adv-x="1056" 
d="M481 1020l-190 395h164l139 -395h-113zM242 377q14 -125 96.5 -199t218.5 -74q166 0 268 113l88 -86q-130 -147 -356 -147q-206 0 -332.5 125.5t-126.5 314.5q0 186 126.5 314t312.5 128q201 0 317.5 -137.5t108.5 -351.5h-721zM244 485h575q-10 115 -82 187.5t-200 72.5
q-120 0 -197.5 -70.5t-95.5 -189.5z" />
    <glyph glyph-name="eacute" unicode="&#xe9;" horiz-adv-x="1056" 
d="M469 1020l139 395h164l-190 -395h-113zM242 377q14 -125 96.5 -199t218.5 -74q166 0 268 113l88 -86q-130 -147 -356 -147q-206 0 -332.5 125.5t-126.5 314.5q0 186 126.5 314t312.5 128q201 0 317.5 -137.5t108.5 -351.5h-721zM244 485h575q-10 115 -82 187.5t-200 72.5
q-120 0 -197.5 -70.5t-95.5 -189.5z" />
    <glyph glyph-name="ecircumflex" unicode="&#xea;" horiz-adv-x="1056" 
d="M256 1016l262 395h19l262 -395h-125l-146 203l-147 -203h-125zM242 377q14 -125 96.5 -199t218.5 -74q166 0 268 113l88 -86q-130 -147 -356 -147q-206 0 -332.5 125.5t-126.5 314.5q0 186 126.5 314t312.5 128q201 0 317.5 -137.5t108.5 -351.5h-721zM244 485h575
q-10 115 -82 187.5t-200 72.5q-120 0 -197.5 -70.5t-95.5 -189.5z" />
    <glyph glyph-name="edieresis" unicode="&#xeb;" horiz-adv-x="1056" 
d="M707 1057q-37 0 -67 28t-30 66q0 39 29.5 66.5t67.5 27.5q37 0 65.5 -27.5t28.5 -66.5q0 -38 -28.5 -66t-65.5 -28zM350 1057q-37 0 -65.5 28t-28.5 66q0 39 28.5 66.5t65.5 27.5q39 0 67.5 -27.5t28.5 -66.5q0 -38 -29 -66t-67 -28zM242 377q14 -125 96.5 -199
t218.5 -74q166 0 268 113l88 -86q-130 -147 -356 -147q-206 0 -332.5 125.5t-126.5 314.5q0 186 126.5 314t312.5 128q201 0 317.5 -137.5t108.5 -351.5h-721zM244 485h575q-10 115 -82 187.5t-200 72.5q-120 0 -197.5 -70.5t-95.5 -189.5z" />
    <glyph glyph-name="igrave" unicode="&#xec;" horiz-adv-x="454" 
d="M170 1020l-190 395h163l140 -395h-113zM156 0v848h143v-848h-143z" />
    <glyph glyph-name="iacute" unicode="&#xed;" horiz-adv-x="454" 
d="M166 1020l139 395h164l-190 -395h-113zM156 0v848h143v-848h-143z" />
    <glyph glyph-name="icircumflex" unicode="&#xee;" horiz-adv-x="454" 
d="M-45 1016l262 395h19l262 -395h-125l-146 203l-147 -203h-125zM156 0v848h143v-848h-143z" />
    <glyph glyph-name="idieresis" unicode="&#xef;" horiz-adv-x="454" 
d="M406 1057q-37 0 -67 28t-30 66q0 39 29.5 66.5t67.5 27.5q37 0 65.5 -27.5t28.5 -66.5q0 -38 -28.5 -66t-65.5 -28zM49 1057q-37 0 -65.5 28t-28.5 66q0 39 28.5 66.5t65.5 27.5q39 0 67.5 -27.5t28.5 -66.5q0 -38 -29 -66t-67 -28zM156 0v848h143v-848h-143z" />
    <glyph glyph-name="eth" unicode="&#xf0;" horiz-adv-x="1093" 
d="M565 1178l-137 -134l-72 72l144 139q-82 93 -172 168l80 88q99 -78 182 -165l137 135l76 -74l-144 -137q336 -391 336 -824q0 -199 -128 -330.5t-318 -131.5q-191 0 -321 127t-130 313q0 122 59 224t158.5 160t216.5 58q177 0 277 -133q-60 224 -244 445zM549 106
q134 0 217.5 92.5t83.5 233.5q0 135 -83.5 222t-217.5 87q-135 0 -220 -89.5t-85 -227.5t85 -228t220 -90z" />
    <glyph glyph-name="ntilde" unicode="&#xf1;" horiz-adv-x="1056" 
d="M330 1010l-107 8q6 108 54 167.5t124 59.5q67 0 142 -65q42 -37 58.5 -47.5t39.5 -10.5q62 0 74 119l106 -10q-6 -108 -52.5 -166.5t-123.5 -58.5q-39 0 -70.5 16.5t-70.5 50.5q-41 37 -58 47t-40 10q-64 0 -76 -120zM152 0v848h143l-4 -174q41 91 121.5 141.5
t183.5 50.5q143 0 230 -93.5t87 -256.5v-516h-143v500q0 114 -53 174.5t-158 60.5q-120 0 -192 -71.5t-72 -196.5v-467h-143z" />
    <glyph glyph-name="ograve" unicode="&#xf2;" horiz-adv-x="1093" 
d="M492 1020l-191 395h164l139 -395h-112zM549 -16q-191 0 -321 127t-130 313t130.5 314t320.5 128q189 0 317.5 -128t128.5 -314t-128.5 -313t-317.5 -127zM549 106q134 0 217.5 90t83.5 228t-83.5 227.5t-217.5 89.5q-135 0 -220 -89.5t-85 -227.5t85 -228t220 -90z" />
    <glyph glyph-name="oacute" unicode="&#xf3;" horiz-adv-x="1093" 
d="M489 1020l140 395h164l-191 -395h-113zM549 -16q-191 0 -321 127t-130 313t130.5 314t320.5 128q189 0 317.5 -128t128.5 -314t-128.5 -313t-317.5 -127zM549 106q134 0 217.5 90t83.5 228t-83.5 227.5t-217.5 89.5q-135 0 -220 -89.5t-85 -227.5t85 -228t220 -90z" />
    <glyph glyph-name="ocircumflex" unicode="&#xf4;" horiz-adv-x="1093" 
d="M274 1016l263 395h18l262 -395h-125l-145 203l-148 -203h-125zM549 -16q-191 0 -321 127t-130 313t130.5 314t320.5 128q189 0 317.5 -128t128.5 -314t-128.5 -313t-317.5 -127zM549 106q134 0 217.5 90t83.5 228t-83.5 227.5t-217.5 89.5q-135 0 -220 -89.5t-85 -227.5
t85 -228t220 -90z" />
    <glyph glyph-name="otilde" unicode="&#xf5;" horiz-adv-x="1093" 
d="M354 1010l-106 8q6 108 54 167.5t124 59.5q40 0 71.5 -16t69.5 -49q42 -37 59 -47.5t40 -10.5q32 0 49.5 28.5t23.5 90.5l107 -10q-6 -108 -52.5 -166.5t-123.5 -58.5q-39 0 -71 16.5t-71 50.5q-41 37 -58 47t-40 10q-64 0 -76 -120zM549 -16q-191 0 -321 127t-130 313
t130.5 314t320.5 128q189 0 317.5 -128t128.5 -314t-128.5 -313t-317.5 -127zM549 106q134 0 217.5 90t83.5 228t-83.5 227.5t-217.5 89.5q-135 0 -220 -89.5t-85 -227.5t85 -228t220 -90z" />
    <glyph glyph-name="odieresis" unicode="&#xf6;" horiz-adv-x="1093" 
d="M725 1057q-37 0 -66.5 28t-29.5 66q0 39 29 66.5t67 27.5q37 0 65.5 -27.5t28.5 -66.5q0 -38 -28.5 -66t-65.5 -28zM369 1057q-37 0 -66 28t-29 66q0 39 28.5 66.5t66.5 27.5q39 0 67.5 -27.5t28.5 -66.5q0 -38 -29 -66t-67 -28zM549 -16q-191 0 -321 127t-130 313
t130.5 314t320.5 128q189 0 317.5 -128t128.5 -314t-128.5 -313t-317.5 -127zM549 106q134 0 217.5 90t83.5 228t-83.5 227.5t-217.5 89.5q-135 0 -220 -89.5t-85 -227.5t85 -228t220 -90z" />
    <glyph glyph-name="divide" unicode="&#xf7;" 
d="M207 387q-44 0 -77.5 33.5t-33.5 79.5t33.5 78t77.5 32q45 0 77.5 -31.5t32.5 -78.5t-32.5 -80t-77.5 -33z" />
    <glyph glyph-name="oslash" unicode="&#xf8;" horiz-adv-x="1093" 
d="M909 688q86 -120 86 -264q0 -186 -128.5 -313t-317.5 -127q-165 0 -291 102l-119 -111l-71 76l118 109q-88 118 -88 264q0 186 130.5 314t320.5 128q164 0 287 -102l116 106l72 -75zM283 250l460 426q-79 67 -194 67q-137 0 -223 -90t-86 -229q0 -93 43 -174zM811 596
l-461 -424q84 -68 199 -68q135 0 220 90.5t85 229.5q0 102 -43 172z" />
    <glyph glyph-name="ugrave" unicode="&#xf9;" horiz-adv-x="1054" 
d="M473 1020l-190 395h163l140 -395h-113zM461 -18q-143 0 -230.5 92.5t-87.5 253.5v520h144v-506q0 -111 53 -170t156 -59q121 0 192.5 72t71.5 196v467h143v-848h-143l4 172q-41 -90 -121 -140t-182 -50z" />
    <glyph glyph-name="uacute" unicode="&#xfa;" horiz-adv-x="1054" 
d="M467 1020l139 395h164l-190 -395h-113zM461 -18q-143 0 -230.5 92.5t-87.5 253.5v520h144v-506q0 -111 53 -170t156 -59q121 0 192.5 72t71.5 196v467h143v-848h-143l4 172q-41 -90 -121 -140t-182 -50z" />
    <glyph glyph-name="ucircumflex" unicode="&#xfb;" horiz-adv-x="1054" 
d="M254 1016l262 395h19l262 -395h-125l-146 203l-147 -203h-125zM461 -18q-143 0 -230.5 92.5t-87.5 253.5v520h144v-506q0 -111 53 -170t156 -59q121 0 192.5 72t71.5 196v467h143v-848h-143l4 172q-41 -90 -121 -140t-182 -50z" />
    <glyph glyph-name="udieresis" unicode="&#xfc;" horiz-adv-x="1054" 
d="M705 1057q-37 0 -67 28t-30 66q0 39 29.5 66.5t67.5 27.5q37 0 65.5 -27.5t28.5 -66.5q0 -38 -28.5 -66t-65.5 -28zM348 1057q-37 0 -65.5 28t-28.5 66q0 39 28.5 66.5t65.5 27.5q39 0 67.5 -27.5t28.5 -66.5q0 -38 -29 -66t-67 -28zM461 -18q-143 0 -230.5 92.5
t-87.5 253.5v520h144v-506q0 -111 53 -170t156 -59q121 0 192.5 72t71.5 196v467h143v-848h-143l4 172q-41 -90 -121 -140t-182 -50z" />
    <glyph glyph-name="yacute" unicode="&#xfd;" horiz-adv-x="946" 
d="M420 1020l139 395h164l-191 -395h-112zM195 -434l217 506l-361 776h158l240 -526q10 -24 19.5 -60t13.5 -60l5 -24q14 91 39 144l222 526h147l-553 -1282h-147z" />
    <glyph glyph-name="thorn" unicode="&#xfe;" horiz-adv-x="1130" 
d="M156 -434v1913h143v-805q46 89 130 140.5t198 51.5q173 0 289 -125.5t116 -314.5q0 -190 -116.5 -316t-290.5 -126q-111 0 -197 53t-129 139v-610h-143zM592 109q132 0 212.5 88.5t80.5 228.5q0 138 -80.5 225.5t-212.5 87.5q-134 0 -217.5 -88t-83.5 -225
q0 -139 83.5 -228t217.5 -89z" />
    <glyph glyph-name="ydieresis" unicode="&#xff;" horiz-adv-x="946" 
d="M649 1057q-37 0 -66.5 28t-29.5 66q0 39 29 66.5t67 27.5q37 0 65.5 -27.5t28.5 -66.5q0 -38 -28.5 -66t-65.5 -28zM293 1057q-37 0 -65.5 28t-28.5 66q0 39 28.5 66.5t65.5 27.5q39 0 67.5 -27.5t28.5 -66.5q0 -38 -29 -66t-67 -28zM195 -434l217 506l-361 776h158
l240 -526q10 -24 19.5 -60t13.5 -60l5 -24q14 91 39 144l222 526h147l-553 -1282h-147z" />
    <glyph glyph-name="dotlessi" unicode="&#x131;" horiz-adv-x="454" 
d="M156 0v848h143v-848h-143z" />
    <glyph glyph-name="Lslash" unicode="&#x141;" horiz-adv-x="1087" 
d="M197 0v408l-154 -60v133l154 60v852h149v-797l408 160v-133l-408 -162v-330h658v-131h-807z" />
    <glyph glyph-name="lslash" unicode="&#x142;" horiz-adv-x="546" 
d="M203 0v494l-174 -105v141l174 107v842h143v-760l180 110v-141l-180 -110v-578h-143z" />
    <glyph glyph-name="OE" unicode="&#x152;" horiz-adv-x="2021" 
d="M844 0q-336 0 -534.5 192t-198.5 504q0 313 198 505t535 192h1028v-131h-698v-654h622v-129h-622v-348h727v-131h-1057zM856 133h170v1127h-170q-289 0 -440.5 -153t-151.5 -411t151.5 -410.5t440.5 -152.5z" />
    <glyph glyph-name="oe" unicode="&#x153;" horiz-adv-x="1804" 
d="M987 377q14 -125 96 -199t220 -74q166 0 268 113l88 -86q-130 -147 -354 -147q-140 0 -238.5 63.5t-146.5 171.5q-47 -107 -145 -171t-226 -64q-191 0 -321 127t-130 313t130.5 314t320.5 128q129 0 226.5 -64.5t144.5 -172.5q46 107 141 172t221 65q201 0 317.5 -137.5
t108.5 -351.5h-721zM989 485h576q-10 115 -82.5 187.5t-200.5 72.5q-120 0 -197.5 -70.5t-95.5 -189.5zM549 106q134 0 217.5 90t83.5 228t-83.5 227.5t-217.5 89.5q-135 0 -220 -89.5t-85 -227.5t85 -228t220 -90z" />
    <glyph glyph-name="Scaron" unicode="&#x160;" horiz-adv-x="1087" 
d="M504 1522l-262 395h125l145 -203l147 203h125l-262 -395h-18zM545 -16q-96 0 -177 23t-139 63.5t-99.5 88.5t-70.5 107l123 66q27 -48 57 -84t72.5 -67.5t100.5 -48.5t129 -17q125 0 206.5 64.5t81.5 172.5q0 101 -61.5 165t-200.5 126l-110 51q-106 48 -169.5 96
t-100.5 119t-37 166q0 149 103.5 241.5t262.5 92.5q251 0 377 -209l-119 -74q-44 72 -105 112t-153 40q-102 0 -161.5 -54.5t-59.5 -144.5q0 -89 49 -141t172 -109l111 -51q181 -80 265.5 -177.5t84.5 -248.5q0 -169 -120.5 -268.5t-311.5 -99.5z" />
    <glyph glyph-name="scaron" unicode="&#x161;" horiz-adv-x="839" 
d="M395 999l-262 396h125l145 -203l148 203h125l-262 -396h-19zM436 -16q-132 0 -224.5 55t-137.5 141l110 64q86 -144 246 -144q85 0 132.5 34t47.5 93q0 23 -5 40.5t-20.5 32t-28.5 23.5t-45.5 21t-53 18.5t-68.5 20.5q-58 17 -97.5 34t-79 45.5t-59.5 72t-20 100.5
q0 107 79 169t200 62q186 0 282 -137l-98 -76q-71 97 -184 97q-69 0 -108.5 -29.5t-39.5 -79.5q0 -57 40.5 -84t160.5 -61q62 -17 105.5 -35t86.5 -47.5t65.5 -74t22.5 -103.5q0 -113 -78 -182.5t-231 -69.5z" />
    <glyph glyph-name="Ydieresis" unicode="&#x178;" horiz-adv-x="1343" 
d="M848 1579q-37 0 -66.5 28t-29.5 66q0 39 29 66.5t67 27.5q37 0 65.5 -27.5t28.5 -66.5q0 -38 -28.5 -66t-65.5 -28zM492 1579q-37 0 -66 28t-29 66q0 39 28.5 66.5t66.5 27.5q39 0 67.5 -27.5t28.5 -66.5q0 -38 -29 -66t-67 -28zM602 0v436l-526 957h166l379 -693
q14 -24 28.5 -59t22.5 -59l8 -23q30 86 59 141l377 693h154l-516 -951v-442h-152z" />
    <glyph glyph-name="Zcaron" unicode="&#x17d;" horiz-adv-x="1189" 
d="M618 1522l-262 395h125l146 -203l147 203h125l-262 -395h-19zM80 0v23l778 1239h-668v131h897v-23l-776 -1239h781v-131h-1012z" />
    <glyph glyph-name="zcaron" unicode="&#x17e;" horiz-adv-x="854" 
d="M451 999l-263 396h125l146 -203l147 203h125l-262 -396h-18zM66 0v20l489 709h-436v119h667v-23l-493 -706h483v-119h-710z" />
    <glyph glyph-name="florin" unicode="&#x192;" horiz-adv-x="733" 
d="M356 416l-96 -850h-139l96 850h-139v116h151l54 459q15 140 81 207.5t171 67.5q79 0 128 -28t82 -83l-98 -80q-24 35 -46 51.5t-60 16.5q-50 0 -80 -33.5t-39 -112.5l-53 -465h192v-116h-205z" />
    <glyph glyph-name="circumflex" unicode="&#x2c6;" horiz-adv-x="1024" 
d="M240 1016l262 395h18l262 -395h-125l-145 203l-147 -203h-125z" />
    <glyph glyph-name="caron" unicode="&#x2c7;" horiz-adv-x="1024" 
d="M504 999l-262 396h125l145 -203l147 203h125l-262 -396h-18z" />
    <glyph glyph-name="breve" unicode="&#x2d8;" horiz-adv-x="1024" 
d="M512 1001q-114 0 -183 66t-85 172l114 21q32 -146 154 -146t154 146l114 -21q-16 -106 -85 -172t-183 -66z" />
    <glyph glyph-name="dotaccent" unicode="&#x2d9;" horiz-adv-x="1024" 
d="M512 1057q-38 0 -67 27t-29 67t29 68t67 28t67 -28t29 -68t-29 -67t-67 -27z" />
    <glyph glyph-name="ring" unicode="&#x2da;" horiz-adv-x="1024" 
d="M512 991q-90 0 -152.5 60t-62.5 145q0 87 62.5 147t152.5 60t152.5 -60t62.5 -147q0 -85 -62.5 -145t-152.5 -60zM512 1083q47 0 76.5 31t29.5 82q0 52 -29 82.5t-77 30.5t-77 -30.5t-29 -82.5q0 -51 29.5 -82t76.5 -31z" />
    <glyph glyph-name="ogonek" unicode="&#x2db;" horiz-adv-x="1024" 
d="M487 -475q-80 0 -135 47t-55 133q0 96 84 207l65 88h105l-74 -121q-35 -58 -49 -92.5t-14 -77.5q0 -41 23 -62.5t57 -21.5q36 0 59.5 19t44.5 53l90 -51q-62 -121 -201 -121z" />
    <glyph glyph-name="tilde" unicode="&#x2dc;" horiz-adv-x="1024" 
d="M319 1010l-106 8q6 108 54 167.5t124 59.5q40 0 71.5 -16t69.5 -49q42 -37 59 -47.5t40 -10.5q62 0 74 119l106 -10q-6 -108 -52.5 -166.5t-123.5 -58.5q-39 0 -70.5 16.5t-70.5 50.5q-41 36 -58 46.5t-41 10.5q-64 0 -76 -120z" />
    <glyph glyph-name="hungarumlaut" unicode="&#x2dd;" horiz-adv-x="1024" 
d="M592 1020l139 395h156l-182 -395h-113zM309 1020l137 395h156l-180 -395h-113z" />
    <glyph glyph-name="Delta" unicode="&#x394;" 
d="M207 387q-44 0 -77.5 33.5t-33.5 79.5t33.5 78t77.5 32q45 0 77.5 -31.5t32.5 -78.5t-32.5 -80t-77.5 -33z" />
    <glyph glyph-name="Delta" unicode="&#x2206;" 
d="M207 387q-44 0 -77.5 33.5t-33.5 79.5t33.5 78t77.5 32q45 0 77.5 -31.5t32.5 -78.5t-32.5 -80t-77.5 -33z" />
    <glyph glyph-name="Omega" unicode="&#x3a9;" 
d="M207 387q-44 0 -77.5 33.5t-33.5 79.5t33.5 78t77.5 32q45 0 77.5 -31.5t32.5 -78.5t-32.5 -80t-77.5 -33z" />
    <glyph glyph-name="Omega" unicode="&#x2126;" 
d="M207 387q-44 0 -77.5 33.5t-33.5 79.5t33.5 78t77.5 32q45 0 77.5 -31.5t32.5 -78.5t-32.5 -80t-77.5 -33z" />
    <glyph glyph-name="pi" unicode="&#x3c0;" 
d="M207 387q-44 0 -77.5 33.5t-33.5 79.5t33.5 78t77.5 32q45 0 77.5 -31.5t32.5 -78.5t-32.5 -80t-77.5 -33z" />
    <glyph glyph-name="endash" unicode="&#x2013;" horiz-adv-x="806" 
d="M72 334v125h661v-125h-661z" />
    <glyph glyph-name="emdash" unicode="&#x2014;" horiz-adv-x="1275" 
d="M72 334v125h1132v-125h-1132z" />
    <glyph glyph-name="quoteleft" unicode="&#x2018;" horiz-adv-x="407" 
d="M205 973q-43 0 -76 31t-33 75q0 32 27 84l113 230h77l-69 -213q27 -9 47 -37t20 -62q0 -45 -32 -76.5t-74 -31.5z" />
    <glyph glyph-name="quoteright" unicode="&#x2019;" horiz-adv-x="407" 
d="M94 987l70 213q-29 9 -48.5 36.5t-19.5 61.5q0 45 32.5 77t74.5 32q43 0 75.5 -31.5t32.5 -75.5q0 -25 -26 -83l-115 -230h-76z" />
    <glyph glyph-name="quotesinglbase" unicode="&#x201a;" horiz-adv-x="407" 
d="M94 -211l70 215q-29 8 -48.5 35t-19.5 63q0 44 32.5 75.5t74.5 31.5q43 0 75.5 -31.5t32.5 -75.5q0 -28 -26 -82l-115 -231h-76z" />
    <glyph glyph-name="quotedblleft" unicode="&#x201c;" horiz-adv-x="731" 
d="M528 973q-43 0 -75.5 31t-32.5 75q0 26 26 84l115 230h76l-70 -213q29 -9 48.5 -37t19.5 -62q0 -45 -32.5 -76.5t-74.5 -31.5zM205 973q-43 0 -76 31t-33 75q0 32 27 84l113 230h77l-69 -213q27 -9 47 -37t20 -62q0 -45 -32 -76.5t-74 -31.5z" />
    <glyph glyph-name="quotedblright" unicode="&#x201d;" horiz-adv-x="731" 
d="M418 987l69 213q-28 9 -47.5 36.5t-19.5 61.5q0 45 32 77t74 32q43 0 76 -31.5t33 -75.5q0 -31 -27 -83l-112 -230h-78zM94 987l70 213q-29 9 -48.5 36.5t-19.5 61.5q0 45 32.5 77t74.5 32q43 0 75.5 -31.5t32.5 -75.5q0 -25 -26 -83l-115 -230h-76z" />
    <glyph glyph-name="quotedblbase" unicode="&#x201e;" horiz-adv-x="731" 
d="M418 -211l69 215q-27 8 -47 35.5t-20 62.5q0 44 32 75.5t74 31.5q43 0 76 -31.5t33 -75.5q0 -33 -27 -82l-112 -231h-78zM94 -211l70 215q-29 8 -48.5 35t-19.5 63q0 44 32.5 75.5t74.5 31.5q43 0 75.5 -31.5t32.5 -75.5q0 -28 -26 -82l-115 -231h-76z" />
    <glyph glyph-name="dagger" unicode="&#x2020;" horiz-adv-x="690" 
d="M279 573v488h-191v119h191v213h133v-213h190v-119h-190v-488h-133z" />
    <glyph glyph-name="daggerdbl" unicode="&#x2021;" horiz-adv-x="690" 
d="M279 573v215h-191v111h191v168h-191v113h191v213h133v-213h190v-113h-190v-168h190v-111h-190v-215h-133z" />
    <glyph glyph-name="bullet" unicode="&#x2022;" horiz-adv-x="571" 
d="M285 344q-78 0 -135.5 57t-57.5 136q0 82 57 138t136 56t136.5 -56t57.5 -138q0 -79 -58 -136t-136 -57z" />
    <glyph glyph-name="ellipsis" unicode="&#x2026;" horiz-adv-x="1261" 
d="M1055 -14q-44 0 -77.5 33t-33.5 79t33.5 78.5t77.5 32.5q45 0 77.5 -32t32.5 -79t-32.5 -79.5t-77.5 -32.5zM631 -14q-44 0 -77.5 33t-33.5 79t33.5 78.5t77.5 32.5q45 0 77.5 -32t32.5 -79t-32.5 -79.5t-77.5 -32.5zM207 -14q-44 0 -77.5 33t-33.5 79t33.5 78.5
t77.5 32.5q45 0 77.5 -32t32.5 -79t-32.5 -79.5t-77.5 -32.5z" />
    <glyph glyph-name="perthousand" unicode="&#x2030;" horiz-adv-x="2275" 
d="M365 446q-126 0 -217 86.5t-91 215.5q0 128 91.5 214.5t216.5 86.5q124 0 214.5 -86.5t90.5 -214.5q0 -129 -90.5 -215.5t-214.5 -86.5zM391 0l645 1032h144l-645 -1032h-144zM1913 -16q-124 0 -214.5 85.5t-90.5 213.5t90.5 214.5t214.5 86.5q125 0 215 -86.5t90 -214.5
t-90 -213.5t-215 -85.5zM1206 -16q-125 0 -215 85.5t-90 213.5t90 214.5t215 86.5t215 -86.5t90 -214.5t-90 -213.5t-215 -85.5zM365 559q75 0 127.5 53t52.5 136q0 84 -52 136t-128 52t-129.5 -52t-53.5 -136q0 -83 53.5 -136t129.5 -53zM1913 94q75 0 127.5 53t52.5 136
t-52.5 135.5t-127.5 52.5q-74 0 -127 -52.5t-53 -135.5t53 -136t127 -53zM1206 94q75 0 127.5 53t52.5 136t-52.5 135.5t-127.5 52.5t-127.5 -52.5t-52.5 -135.5t52.5 -136t127.5 -53z" />
    <glyph glyph-name="guilsinglleft" unicode="&#x2039;" horiz-adv-x="495" 
d="M270 76l-192 325v17l192 321h148l-197 -329l197 -334h-148z" />
    <glyph glyph-name="guilsinglright" unicode="&#x203a;" horiz-adv-x="495" 
d="M78 76l196 332l-196 331h147l193 -323v-17l-193 -323h-147z" />
    <glyph glyph-name="fraction" unicode="&#x2044;" horiz-adv-x="718" 
d="M-35 0l645 1032h144l-645 -1032h-144z" />
    <glyph glyph-name="fraction" unicode="&#x2215;" horiz-adv-x="718" 
d="M-35 0l645 1032h144l-645 -1032h-144z" />
    <glyph glyph-name="Euro" unicode="&#x20ac;" horiz-adv-x="1271" 
d="M231 580h-149v114h174q53 160 189.5 257.5t310.5 97.5q262 0 407 -193l-106 -82q-57 76 -127.5 113t-173.5 37q-122 0 -214.5 -61.5t-135.5 -168.5h444v-114h-473q-4 -40 -4 -64q0 -25 4 -65h473v-115h-442q43 -106 135.5 -166.5t212.5 -60.5q111 0 184 39t131 116
l105 -74q-134 -206 -420 -206q-173 0 -309.5 96.5t-190.5 255.5h-174v115h149q-4 40 -4 65q0 24 4 64z" />
    <glyph glyph-name="trademark" unicode="&#x2122;" horiz-adv-x="1484" 
d="M709 784v619h18l295 -330l293 330h18v-619h-110v383l-191 -227h-20l-193 227v-383h-110zM283 784v514h-185v95h480v-95h-185v-514h-110z" />
    <glyph glyph-name="partialdiff" unicode="&#x2202;" 
d="M207 387q-44 0 -77.5 33.5t-33.5 79.5t33.5 78t77.5 32q45 0 77.5 -31.5t32.5 -78.5t-32.5 -80t-77.5 -33z" />
    <glyph glyph-name="product" unicode="&#x220f;" 
d="M207 387q-44 0 -77.5 33.5t-33.5 79.5t33.5 78t77.5 32q45 0 77.5 -31.5t32.5 -78.5t-32.5 -80t-77.5 -33z" />
    <glyph glyph-name="summation" unicode="&#x2211;" horiz-adv-x="1650" 
d="M901 2q56 -46 90 -69.5t90 -44.5t117 -21q122 0 205 92l100 -90q-114 -135 -303 -135q-61 0 -117 14.5t-111 46.5t-85 53.5t-84 63.5q-57 43 -94 67t-94.5 46t-112.5 22q-152 0 -248 -149l-100 82q79 123 219 165q-124 93 -194 235t-70 316q0 205 96 369.5t259 254
t359 89.5q197 0 360.5 -89.5t260 -254t96.5 -369.5q0 -143 -49.5 -268t-135.5 -214t-203 -144.5t-251 -67.5zM823 121q244 0 403.5 163.5t159.5 411.5q0 164 -72 296.5t-201 208t-290 75.5q-242 0 -401.5 -165t-159.5 -415q0 -163 72 -294.5t200.5 -206t288.5 -74.5z" />
    <glyph glyph-name="minus" unicode="&#x2212;" 
d="M207 387q-44 0 -77.5 33.5t-33.5 79.5t33.5 78t77.5 32q45 0 77.5 -31.5t32.5 -78.5t-32.5 -80t-77.5 -33z" />
    <glyph glyph-name="radical" unicode="&#x221a;" 
d="M207 387q-44 0 -77.5 33.5t-33.5 79.5t33.5 78t77.5 32q45 0 77.5 -31.5t32.5 -78.5t-32.5 -80t-77.5 -33z" />
    <glyph glyph-name="integral" unicode="&#x222b;" 
d="M207 387q-44 0 -77.5 33.5t-33.5 79.5t33.5 78t77.5 32q45 0 77.5 -31.5t32.5 -78.5t-32.5 -80t-77.5 -33z" />
    <glyph glyph-name="approxequal" unicode="&#x2248;" 
d="M207 387q-44 0 -77.5 33.5t-33.5 79.5t33.5 78t77.5 32q45 0 77.5 -31.5t32.5 -78.5t-32.5 -80t-77.5 -33z" />
    <glyph glyph-name="lessequal" unicode="&#x2264;" 
d="M207 387q-44 0 -77.5 33.5t-33.5 79.5t33.5 78t77.5 32q45 0 77.5 -31.5t32.5 -78.5t-32.5 -80t-77.5 -33z" />
    <glyph glyph-name="greaterequal" unicode="&#x2265;" 
d="M207 387q-44 0 -77.5 33.5t-33.5 79.5t33.5 78t77.5 32q45 0 77.5 -31.5t32.5 -78.5t-32.5 -80t-77.5 -33z" />
    <glyph glyph-name="lozenge" unicode="&#x25ca;" 
d="M207 387q-44 0 -77.5 33.5t-33.5 79.5t33.5 78t77.5 32q45 0 77.5 -31.5t32.5 -78.5t-32.5 -80t-77.5 -33z" />
    <glyph glyph-name="plusminus" horiz-adv-x="1562" 
d="M207 0v727h-137v121h137v344q0 137 62.5 204.5t170.5 67.5q139 0 209 -90l-92 -90q-41 51 -102 51q-50 0 -77.5 -32.5t-27.5 -110.5v-344h381v311q0 110 48 190.5t123 118t165 37.5q141 0 236.5 -86.5t95.5 -251.5v-1167h-144v1157q0 112 -50 165.5t-138 53.5
q-89 0 -141 -54t-52 -165v-309h218v-121h-218v-727h-143v727h-381v-727h-143z" />
    <glyph glyph-name="apple" horiz-adv-x="413" 
d="M207 387q-44 0 -77.5 33.5t-33.5 79.5t33.5 78t77.5 32q45 0 77.5 -31.5t32.5 -78.5t-32.5 -80t-77.5 -33z" />
    <glyph glyph-name="infinity" horiz-adv-x="1554" 
d="M1327 1094q-41 0 -71.5 28.5t-30.5 71.5t30.5 72.5t71.5 29.5t72 -29.5t31 -72.5t-31 -71.5t-72 -28.5zM207 0v727h-137v121h137v344q0 137 62.5 204.5t170.5 67.5q139 0 209 -90l-92 -90q-41 51 -102 51q-50 0 -77.5 -32.5t-27.5 -110.5v-344h381v385q0 137 63.5 204.5
t174.5 67.5q132 0 205 -92l-91 -86q-24 25 -46.5 37t-57.5 12q-50 0 -77.5 -32.5t-27.5 -110.5v-385h525v-848h-144v727h-381v-727h-143v727h-381v-727h-143z" />
    <glyph glyph-name="notequal" horiz-adv-x="1171" 
d="M207 0v727h-137v121h137v344q0 137 62.5 204.5t170.5 67.5q139 0 209 -90l-92 -90q-41 51 -102 51q-50 0 -77.5 -32.5t-27.5 -110.5v-344h381v385q0 137 63.5 204.5t172.5 67.5q144 0 215 -104l-95 -84q-24 31 -46.5 45t-61.5 14q-105 0 -105 -143v-385h228v-121h-228
v-727h-143v727h-381v-727h-143z" />
    </font>
</defs>
</svg>
